<?xml version="1.0" standalone="no"?>
<!DOCTYPE svg PUBLIC "-//W3C//DTD SVG 1.1//EN" "http://www.w3.org/Graphics/SVG/1.1/DTD/svg11.dtd" >
<svg xmlns="http://www.w3.org/2000/svg">
<metadata>
This is a custom SVG webfont generated by Font Squirrel.
Copyright   : Copyright c Men Nettelbladt 2006 All rights reserved
Designer    : Men Nettelbladt
Foundry     : Men Nettelbladt
</metadata>
<defs>
<font id="webfontEmuN7CeE" horiz-adv-x="851" >
<font-face units-per-em="2048" ascent="1638" descent="-410" />
<missing-glyph horiz-adv-x="393" />
<glyph unicode=" "  horiz-adv-x="393" />
<glyph unicode="&#x09;" horiz-adv-x="393" />
<glyph unicode="&#xa0;" horiz-adv-x="393" />
<glyph unicode="!" horiz-adv-x="409" d="M205 -8q-35 0 -60.5 25.5t-25.5 60.5t25.5 60.5t60.5 25.5t60.5 -25.5t25.5 -60.5t-25.5 -60.5t-60.5 -25.5zM139 1204q0 29 19.5 47.5t46.5 18.5q29 0 47 -18.5t18 -47.5v-819q0 -29 -18.5 -47.5t-46.5 -18.5q-27 0 -46.5 18.5t-19.5 47.5v819z" />
<glyph unicode="&#x22;" horiz-adv-x="720" d="M524 1311q29 0 47.5 -18.5t18.5 -47.5v-205q0 -29 -18.5 -47t-47.5 -18t-47 18.5t-18 46.5v205q0 29 18 47.5t47 18.5zM131 1245q0 29 18.5 47.5t47.5 18.5t47 -18.5t18 -47.5v-205q0 -29 -18.5 -47t-46.5 -18q-29 0 -47.5 18.5t-18.5 46.5v205z" />
<glyph unicode="#" horiz-adv-x="937" d="M696 772v-203h142q27 0 45 -17t18 -44t-18.5 -45.5t-44.5 -18.5h-142v-387q0 -27 -18.5 -45t-44.5 -18q-27 0 -44.5 18.5t-17.5 44.5v387h-202v-387q0 -27 -18.5 -45t-45.5 -18t-44 18.5t-17 44.5v387h-144q-27 0 -44 18.5t-17 45.5t17.5 44t43.5 17h144v203h-144 q-27 0 -44 18.5t-17 45.5t17.5 44t43.5 17h144v348q0 27 17.5 44.5t43.5 17.5q27 0 45.5 -17.5t18.5 -44.5v-348h202v348q0 27 17.5 44.5t44.5 17.5t45 -17.5t18 -44.5v-348h142q27 0 45 -17.5t18 -43.5q0 -27 -18.5 -45.5t-44.5 -18.5h-142zM571 772h-202v-203h202v203z " />
<glyph unicode="$" d="M600 604q53 -41 81 -101.5t30 -127.5q0 -66 -28 -126.5t-79 -103.5q-29 -25 -60.5 -40t-66.5 -25v-105q0 -29 -19.5 -47t-45.5 -18q-29 0 -47.5 18.5t-18.5 46.5v107q-61 12 -111.5 49t-82.5 92q-14 23 -6 49.5t30 40.5q23 12 49.5 5t40.5 -29q39 -70 117 -82q6 -2 12 -2 h15h2q61 0 108 41q59 49 60 129q-2 37 -18.5 70.5t-45.5 56.5l-256 211q-51 41 -78.5 98t-27.5 123q-2 66 24.5 125t77.5 100q51 45 123 62v106q0 29 18.5 47.5t46.5 18.5q27 0 46.5 -18.5t19.5 -47.5v-106q59 -14 107.5 -49t78.5 -89q12 -23 5 -49t-29 -41 q-23 -14 -49.5 -6t-40.5 31q-35 66 -111 78q-6 2 -14 2h-13h-2q-57 0 -102 -39q-59 -49 -55 -123q0 -76 57 -121z" />
<glyph unicode="%" horiz-adv-x="1214" d="M895 485q49 0 94 -19.5t78 -52t52.5 -77.5t19.5 -94q0 -51 -19.5 -95.5t-52.5 -77t-78 -52t-94 -19.5q-51 0 -95 19.5t-77 52t-52.5 76.5t-19.5 96q0 49 19.5 94t52.5 77.5t77 52t95 19.5zM895 117q53 0 89 35.5t36 89.5q0 53 -36 89t-89 36t-89 -36t-36 -89t36 -89 t89 -36zM565 1061q0 -51 -19.5 -95t-52 -77t-77.5 -52.5t-94 -19.5q-51 0 -95.5 19.5t-77 52.5t-52 77t-19.5 95q0 49 19.5 94t52 78t76.5 52.5t96 19.5q49 0 94 -19.5t77.5 -52.5t52 -78t19.5 -94zM197 1061q0 -53 35.5 -89t89.5 -36q53 0 88.5 36t35.5 89t-35.5 89 t-88.5 36t-89 -36t-36 -89zM924 1305q25 -12 33 -38t-3 -50l-573 -1188q-12 -25 -38 -34t-50 3q-25 12 -34 37.5t3 50.5l574 1188q12 25 37.5 33t50.5 -2z" />
<glyph unicode="&#x26;" horiz-adv-x="1009" d="M715 205l-37 -62q-35 -57 -86 -93t-115 -52q-63 -14 -125.5 -1t-115.5 48q-111 76 -134 209q-10 66 5.5 126t56.5 114l164 213l-140 180l-2 2v2h-2v2q-41 63 -44 138t34 140q37 68 102.5 106t143.5 34t140.5 -45t94.5 -111q33 -70 25 -144.5t-55 -136.5l-131 -167 l155 -203l51 -68l64 105q14 25 40.5 31t49.5 -9q23 -14 30 -39.5t-7 -50.5l-91 -147l162 -207q16 -23 13 -49.5t-25 -42.5q-23 -16 -49.5 -14.5t-42.5 24.5zM412 813l108 141q25 33 29 72t-12 74t-49 56.5t-72 23.5q-41 2 -74 -17.5t-53 -54.5q-18 -35 -17.5 -73t21.5 -70z M629 315l-84 109l-133 174l-144 -184q-47 -63 -35 -140q4 -37 25 -67.5t51 -52.5q61 -43 140 -27q74 16 116 84z" />
<glyph unicode="'" horiz-adv-x="393" d="M262 1040q0 -29 -19.5 -47t-45.5 -18q-29 0 -47.5 18.5t-18.5 46.5v205q0 29 18.5 47.5t47.5 18.5q27 0 46 -18.5t19 -47.5v-205z" />
<glyph unicode="(" horiz-adv-x="548" d="M494 1368q-61 -78 -107.5 -164t-79.5 -178q-61 -182 -61 -375q0 -195 61 -375q33 -92 79 -178t108 -164q16 -23 13 -49t-26 -43q-23 -16 -49 -14t-43 25q-137 174 -205 380q-70 201 -69 418q0 217 69 418q35 104 86.5 198.5t118.5 182.5q16 23 43 25t49 -15 q23 -16 26 -42.5t-13 -49.5z" />
<glyph unicode=")" horiz-adv-x="550" d="M434 672q0 -217 -69 -418q-72 -209 -207 -381q-16 -23 -43 -25t-49 15q-20 16 -23.5 42.5t12.5 49.5q61 78 107.5 164t79.5 178q61 180 61 375q0 193 -61 375q-33 92 -79 178t-108 164q-16 23 -13 49t24 43q23 16 49 14t43 -25q137 -178 207 -380q69 -201 69 -418z" />
<glyph unicode="*" d="M489 829v-198q0 -27 -18 -45.5t-45 -18.5t-44 18.5t-17 45.5v198l-175 -98q-23 -14 -47 -7t-37 30q-14 23 -7 47t30 37l172 100l-172 100q-23 12 -30 37t7 47q12 23 37 30t47 -7l175 -98v198q0 27 17 44.5t44 17.5t45 -17.5t18 -44.5v-198l173 98q23 14 47 7t36 -30 q14 -23 7 -47t-29 -37l-172 -100l172 -100q23 -12 30 -37t-8 -47q-12 -23 -36.5 -30t-46.5 7z" />
<glyph unicode="+" d="M672 655q27 0 46 -18.5t19 -46.5q0 -29 -19.5 -47.5t-45.5 -18.5h-180v-180q0 -29 -19.5 -47t-46.5 -18q-29 0 -47.5 18t-18.5 47v180h-180q-29 0 -47 18.5t-18 47.5t18.5 47t46.5 18h180v181q0 29 18.5 47t47.5 18q27 0 46.5 -18.5t19.5 -46.5v-181h180z" />
<glyph unicode="," horiz-adv-x="393" d="M139 -41q29 10 29 41v35h-4q-27 0 -44.5 18.5t-17.5 44.5q0 27 17.5 44.5t44.5 17.5h65q27 0 45.5 -17.5t18.5 -44.5v-98q0 -51 -28.5 -93t-76.5 -63q-25 -10 -48 0.5t-34 32.5q-10 25 0 48.5t33 33.5z" />
<glyph unicode="-" d="M737 590q0 -29 -19.5 -47.5t-45.5 -18.5h-492q-29 0 -47 18.5t-18 47.5t18.5 47t46.5 18h492q27 0 46 -18t19 -47z" />
<glyph unicode="." horiz-adv-x="393" d="M111 78q0 35 25.5 60.5t60.5 25.5t60.5 -25.5t25.5 -60.5t-26 -60.5t-60 -25.5q-35 0 -60.5 25.5t-25.5 60.5z" />
<glyph unicode="/" d="M694 1389q27 -10 38 -34t1 -50l-491 -1352q-10 -27 -34 -38t-50 -1q-25 10 -37 33.5t-2 50.5l491 1352q10 25 34.5 37t49.5 2z" />
<glyph unicode="0" d="M426 -8q-66 0 -122 24.5t-98 66.5t-66.5 98.5t-24.5 121.5v696q0 63 24.5 121t66.5 100t98 66.5t122 24.5q63 0 119.5 -24.5t99.5 -66.5t67.5 -99.5t24.5 -121.5v-696q0 -66 -24.5 -122t-67.5 -98t-99.5 -66.5t-119.5 -24.5zM426 1180q-76 0 -128 -53.5t-52 -127.5v-696 q0 -76 52 -128t128 -52q74 0 127 52t53 128v696q0 37 -14 70t-39 57.5t-57.5 39t-69.5 14.5z" />
<glyph unicode="1" d="M274 952q-18 -18 -45 -18t-47 18q-18 20 -18 47t18 48l246 245q14 14 33.5 17.5t38.5 -2.5q41 -16 41 -62v-1188q0 -29 -19.5 -47t-46.5 -18q-29 0 -47 18.5t-18 46.5v1030z" />
<glyph unicode="2" d="M156 1065q-23 14 -31 41t6 49q63 113 186 143q59 16 120 9t114 -35q53 -29 92 -76t55 -106q37 -121 -22 -236l-160 -305l-65 -124l-62 -119l-53 -102l-39 -73h350q27 0 46.5 -18.5t19.5 -46.5q0 -29 -19.5 -47.5t-46.5 -18.5h-459q-39 0 -55 31q-20 35 -2 65l430 819 q35 66 12 136q-10 35 -31.5 62.5t-54.5 43.5q-63 35 -135 17q-35 -10 -62.5 -32t-43.5 -52q-14 -23 -40.5 -31t-49.5 6z" />
<glyph unicode="3" d="M420 129q59 16 96 64.5t37 109.5v123q0 74 -53.5 127t-126.5 53q-29 0 -47.5 18.5t-18.5 47.5t18.5 47t47.5 18q74 0 127 52.5t53 128.5v81q0 61 -37 109.5t-96 65.5q-59 16 -115.5 -7.5t-87.5 -76.5q-14 -23 -40.5 -31t-49.5 6t-31 41t6 49q27 45 66 79t85 53.5t97 23.5 t103 -11q104 -29 167.5 -111.5t63.5 -189.5v-81q0 -76 -33 -139.5t-88 -106.5q55 -43 88 -106.5t33 -139.5v-123q0 -106 -63.5 -189t-167.5 -112q-51 -14 -102.5 -10t-97.5 23.5t-85 52t-66 79.5q-14 23 -6 49.5t31 41.5q23 12 49.5 5t40.5 -30q31 -53 87.5 -76.5 t115.5 -7.5z" />
<glyph unicode="4" d="M152 279q-33 0 -54 26q-20 27 -10 60l287 901q10 25 33.5 38t50.5 3q45 -14 45 -62q0 -14 -4 -20l-113 -357l-45 -140l-42 -133l-35 -111l-23 -74h254v221q0 29 18 47t47 18t47.5 -18.5t18.5 -46.5v-221h98q29 0 47.5 -18.5t18.5 -47.5t-18.5 -47t-47.5 -18h-98v-222 q0 -29 -18.5 -47t-47.5 -18t-47 18.5t-18 46.5v222h-344z" />
<glyph unicode="5" d="M195 588q-23 6 -36.5 23.5t-13.5 39.5v586q0 29 18.5 47.5t47.5 18.5h426q29 0 47 -18.5t18 -47.5t-18 -47.5t-47 -18.5h-361v-368q106 57 228 26q104 -29 167.5 -111.5t63.5 -189.5v-225q0 -106 -63.5 -189t-167.5 -112q-51 -14 -102.5 -10t-97.5 23.5t-85 52t-65 79.5 q-12 23 -5 49.5t29 41.5q23 12 49.5 5t40.5 -30q31 -53 87.5 -76.5t115.5 -7.5t96 64.5t37 109.5v225q0 61 -37 109.5t-96 64.5t-115.5 -7t-87.5 -77q-10 -20 -30 -28t-43 -2z" />
<glyph unicode="6" d="M444 -8q-66 0 -122 24.5t-98 66.5t-66.5 98.5t-24.5 121.5v696q0 106 64.5 189.5t167.5 111.5q51 14 102 10.5t97 -23t85 -53.5t66 -79q14 -23 6 -49.5t-31 -40.5t-49.5 -6t-40.5 31q-29 53 -86 76.5t-117 7.5q-59 -16 -96 -64.5t-37 -110.5v-237q80 57 180 57 q63 0 121 -24.5t100 -66.5t66.5 -99.5t24.5 -120.5v-205q0 -66 -24.5 -122t-66.5 -98t-100 -66.5t-121 -24.5zM444 688q-37 0 -69.5 -14.5t-57 -39t-39 -57t-14.5 -69.5v-205q0 -76 53.5 -128t126.5 -52q76 0 128.5 52t52.5 128v205q0 74 -52.5 127t-128.5 53z" />
<glyph unicode="7" d="M174 1008q-27 0 -46 18t-19 47v164q0 29 19 47.5t46 18.5h492q31 0 51 -25q20 -29 12 -57l-287 -1180q-6 -27 -28.5 -40t-48.5 -7q-23 4 -37.5 22.5t-14.5 40.5q0 4 1 8.5t1 8.5l121 495l47 193l43 178l36 143l22 88h-344v-98q0 -29 -18.5 -47t-47.5 -18z" />
<glyph unicode="8" d="M426 -8q-63 0 -119.5 24.5t-99.5 66.5t-67.5 98.5t-24.5 121.5v123q0 76 32.5 139.5t88.5 106.5q-55 43 -88 106.5t-33 139.5v81q0 63 24.5 121t67.5 100t99 66.5t120 24.5q63 0 120.5 -24.5t99.5 -66.5t66.5 -99.5t24.5 -121.5v-81q0 -76 -32.5 -139.5t-86.5 -106.5 q53 -43 86 -106.5t33 -139.5v-123q0 -66 -24.5 -122t-66.5 -98t-99.5 -66.5t-120.5 -24.5zM246 918q0 -76 53 -128.5t127 -52.5q76 0 128 52.5t52 128.5v81q0 74 -52 127.5t-128 53.5q-37 0 -69.5 -14.5t-57.5 -39t-39 -57.5t-14 -70v-81zM606 426q0 74 -52 127t-128 53 q-37 0 -69.5 -14t-57.5 -39t-39 -57.5t-14 -69.5v-123q0 -76 53 -128t127 -52q76 0 128 52t52 128v123z" />
<glyph unicode="9" d="M408 483q-63 0 -120 24.5t-100 66.5t-67.5 98.5t-24.5 122.5v204q0 63 24.5 121t67.5 100t99.5 66.5t120.5 24.5q63 0 120.5 -24.5t99.5 -66.5t66.5 -99.5t24.5 -121.5v-696q0 -106 -63.5 -189t-166.5 -112q-104 -29 -200 12t-150 133q-14 23 -7 49.5t30 41.5 q25 12 50.5 5t39.5 -30q31 -53 87 -76.5t116 -7.5q59 16 96 64.5t37 109.5v238q-76 -58 -180 -58zM408 1180q-37 0 -70 -14.5t-57.5 -39t-39 -57.5t-14.5 -70v-204q0 -76 53.5 -128.5t127.5 -52.5q76 0 128 52.5t52 128.5v204q0 74 -52 127.5t-128 53.5z" />
<glyph unicode=":" horiz-adv-x="393" d="M283 78q0 -35 -25 -60.5t-61 -25.5q-35 0 -60.5 25.5t-25.5 60.5t25.5 60.5t60.5 25.5q37 0 61.5 -25.5t24.5 -60.5zM197 942q37 0 61.5 -25.5t24.5 -60.5t-25 -60.5t-61 -25.5q-35 0 -60.5 25.5t-25.5 60.5t25.5 60.5t60.5 25.5z" />
<glyph unicode=";" horiz-adv-x="393" d="M229 160q27 0 45.5 -17.5t18.5 -44.5v-98q0 -51 -28.5 -93t-76.5 -63q-25 -10 -48 0.5t-34 32.5q-10 25 0.5 48.5t32.5 33.5q29 10 29 41v35h-4q-27 0 -44.5 18.5t-17.5 44.5q0 27 17.5 44.5t44.5 17.5h65zM197 770q-35 0 -60.5 25.5t-25.5 60.5t25.5 60.5t60.5 25.5 t60.5 -25.5t25.5 -60.5t-25.5 -60.5t-60.5 -25.5z" />
<glyph unicode="&#x3c;" d="M705 137q-16 -20 -43 -22t-50 14l-491 410q-23 18 -23 51q0 29 23 51l491 410q23 16 49.5 14t43.5 -25q16 -20 16 -41q0 -31 -25 -51l-180 -149l-74 -62l-70 -58l-62 -51l-44 -38l44 -38l62 -51l70 -59l74 -61l180 -150q25 -23 25 -51q0 -23 -16 -43z" />
<glyph unicode="=" d="M672 492q29 0 47 -18.5t18 -47.5t-18.5 -47.5t-46.5 -18.5h-492q-27 0 -46 18.5t-19 47.5t19.5 47.5t45.5 18.5h492zM672 819q29 0 47 -18.5t18 -46.5q0 -29 -18.5 -47.5t-46.5 -18.5h-492q-27 0 -46 18.5t-19 47.5t19.5 47t45.5 18h492z" />
<glyph unicode="&#x3e;" d="M131 180q0 29 23 51l182 150l74 61l69 59l61 51q28 24 46 38q-18 14 -46 38l-61 51l-69 58l-74 62l-182 149q-23 23 -23 51q0 25 14 41q18 23 45 25t48 -14l491 -410q25 -23 25 -51q0 -33 -25 -51l-491 -410q-20 -16 -47 -14t-46 22q-14 16 -14 43z" />
<glyph unicode="?" horiz-adv-x="731" d="M446 1143q-66 49 -145 33q-80 -16 -121 -86q-14 -23 -39.5 -31t-50.5 6q-23 14 -30 41t8 49q35 59 88 97t118 53q66 14 131.5 -1.5t118.5 -56.5t86 -100.5t37 -124.5q4 -68 -19.5 -131.5t-70.5 -110.5l-102 -104q-53 -53 -54 -127v-164q0 -29 -18 -47.5t-47 -18.5 q-27 0 -46.5 18.5t-19.5 47.5v164q0 61 23.5 117.5t66.5 101.5l105 104q57 57 51 140q-4 39 -21.5 73.5t-48.5 57.5zM422 78q0 -35 -25.5 -60.5t-60.5 -25.5t-60.5 25.5t-25.5 60.5t25.5 60.5t60.5 25.5t60.5 -25.5t25.5 -60.5z" />
<glyph unicode="@" horiz-adv-x="1564" d="M1247 1114q92 -94 141.5 -213t49.5 -250v-381q0 -55 -20.5 -103t-57.5 -85t-85 -57.5t-104 -20.5h-409q-55 0 -103.5 20.5t-84 57.5t-57 85t-21.5 103t21.5 103.5t57 84.5t84 57.5t103.5 21.5h143v139q0 41 -23.5 75.5t-64.5 51.5q-41 16 -83 8t-72 -39q-18 -16 -46 -16 q-25 0 -43 18q-16 18 -16 43q0 27 18 43q57 57 135 71.5t152 -13.5q76 -29 121 -95.5t45 -146.5v-549h143q59 0 101.5 42t42.5 101v381q0 106 -40 202.5t-116 172.5q-76 78 -172 118t-205 40q-106 0 -202.5 -40t-171.5 -118q-78 -76 -118 -172t-40 -203v-368q0 -109 40 -205 t118 -172q76 -76 172 -116t202 -40h226q27 0 44 -18.5t17 -42.5q0 -27 -17.5 -44.5t-43.5 -17.5h-226q-131 0 -249.5 49.5t-213.5 141.5q-92 94 -142 213t-50 252v368q0 131 50 250t142 213q94 92 213 142.5t250 50.5q133 0 252 -50.5t213 -142.5zM618 270q0 -59 42 -101 t102 -42h143v287h-143q-59 0 -101.5 -42.5t-42.5 -101.5z" />
<glyph unicode="A" horiz-adv-x="884" d="M834 74q3 -10 3 -20q0 -16 -9 -29q-13 -23 -42 -31q-10 -3 -19 -3q-16 0 -30 8q-23 13 -30 40l-19 67q-10 33 -21 76l-26 97h-397q-16 -53 -26.5 -96.5t-20.5 -76.5l-19 -67q-8 -27 -31 -40q-14 -8 -30 -8q-10 0 -21 3q-27 8 -40 31q-8 14 -8 29q0 10 3 20l328 1188 q6 23 23.5 36t39.5 13q23 0 40.5 -13.5t23.5 -35.5zM604 410l-43 156l-44 159l-41 148l-34 126q-16 -55 -34 -126l-40 -148l-44 -159l-43 -156h323z" />
<glyph unicode="B" horiz-adv-x="876" d="M139 1237q0 29 18.5 47.5t47.5 18.5h246q63 0 120.5 -25t99.5 -67t66.5 -99t24.5 -121v-73q0 -76 -33 -139.5t-88 -106.5q55 -43 88 -106.5t33 -139.5v-115q0 -66 -24.5 -122t-66.5 -98t-99.5 -66.5t-120.5 -24.5h-246q-29 0 -47.5 18.5t-18.5 47.5v1171zM631 426 q0 37 -14.5 69.5t-39 57.5t-57.5 39t-69 14h-181v-475h181q74 0 127 52.5t53 127.5v115zM631 991q0 37 -14.5 70t-39 57.5t-57.5 38.5t-69 14h-181v-434h181q74 0 127 52.5t53 128.5v73z" />
<glyph unicode="C" horiz-adv-x="788" d="M346 2q-104 29 -167.5 112t-63.5 189v696q0 106 63.5 189.5t167.5 111.5q40 11 80 12l23 -1q51 -4 97 -23.5t85 -53.5t65 -79q8 -14 8 -30q0 -9 -3 -19q-7 -27 -29 -41q-23 -14 -49.5 -6t-40.5 31q-31 53 -87 76q-33 14 -68 14q-24 0 -48 -6q-59 -16 -96 -64.5 t-37 -110.5v-696q0 -61 36.5 -109.5t96.5 -64.5q24 -7 48 -7q34 0 68 14q56 24 87 77q14 23 40.5 30t49.5 -5q23 -14 29 -41q3 -10 3 -19q0 -16 -8 -31q-27 -47 -65.5 -79.5t-84.5 -52t-97 -23.5q-11 -1 -23 -1z" />
<glyph unicode="D" horiz-adv-x="876" d="M451 1303q63 0 120.5 -25t99.5 -67t66.5 -99t24.5 -121v-680q0 -66 -24.5 -122t-66.5 -98t-99.5 -66.5t-120.5 -24.5h-246q-29 0 -47.5 18.5t-18.5 47.5v1171q0 29 18.5 47.5t47.5 18.5h246zM631 991q0 74 -52.5 127t-127.5 53h-181v-1040h181q76 0 128 52.5t52 127.5 v680z" />
<glyph unicode="E" horiz-adv-x="753" d="M139 1237q0 29 18.5 47.5t47.5 18.5h409q29 0 47.5 -18.5t18.5 -47.5t-18.5 -47.5t-47.5 -18.5h-344v-434h303q29 0 47.5 -18.5t18.5 -46.5q0 -29 -18.5 -47.5t-47.5 -18.5h-303v-475h344q29 0 47.5 -18.5t18.5 -46.5q0 -29 -18.5 -47.5t-47.5 -18.5h-409 q-29 0 -47.5 18.5t-18.5 47.5v1171z" />
<glyph unicode="F" horiz-adv-x="737" d="M205 0q-27 0 -46.5 18.5t-19.5 47.5v1171q0 29 19.5 47.5t46.5 18.5h409q29 0 47.5 -18.5t18.5 -47.5t-18.5 -47.5t-47.5 -18.5h-344v-434h303q29 0 47.5 -18.5t18.5 -46.5q0 -29 -18.5 -47.5t-47.5 -18.5h-303v-540q0 -29 -18 -47.5t-47 -18.5z" />
<glyph unicode="G" horiz-adv-x="843" d="M115 999q0 106 64.5 189.5t166.5 111.5q40 11 80 12l23 -1q51 -4 97 -23.5t85 -53.5t65 -79q14 -23 7 -49.5t-31 -40.5q-23 -14 -49.5 -6t-40.5 31q-29 53 -85 76q-33 14 -68 14q-24 0 -48 -6q-59 -16 -97 -64.5t-38 -110.5v-696q0 -76 53 -128t127 -52q76 0 128 52 t52 128v262h-139q-27 0 -46.5 18.5t-19.5 47.5t19.5 47t46.5 18h205q29 0 47 -18.5t18 -46.5v-328q0 -66 -24.5 -122t-66.5 -98t-99.5 -66.5t-120.5 -24.5q-66 0 -122 24.5t-98 66.5t-66.5 98.5t-24.5 121.5v696z" />
<glyph unicode="H" horiz-adv-x="901" d="M631 1245q0 29 19.5 47.5t45.5 18.5q29 0 47.5 -18.5t18.5 -47.5v-1188q0 -29 -18.5 -47t-47.5 -18q-27 0 -46 18.5t-19 46.5v549h-361v-549q0 -29 -18.5 -47t-46.5 -18q-27 0 -46.5 18.5t-19.5 46.5v1188q0 29 19.5 47.5t46.5 18.5q29 0 47 -18.5t18 -47.5v-508h361v508 z" />
<glyph unicode="I" horiz-adv-x="409" d="M205 -8q-27 0 -46.5 18.5t-19.5 46.5v1188q0 29 19.5 47.5t46.5 18.5q29 0 47 -18.5t18 -47.5v-1188q0 -29 -18 -47t-47 -18z" />
<glyph unicode="J" horiz-adv-x="681" d="M551 303q0 -84 -42 -156.5t-114 -113.5t-155 -41q-84 0 -156 41q-25 14 -32 41q-2 9 -2 17q0 17 9 32q14 23 40 31t51 -7q41 -25 88 -24q49 0 92 24q41 23 65.5 66t24.5 90v942q0 29 18.5 47.5t46.5 18.5q27 0 46.5 -18.5t19.5 -47.5v-942z" />
<glyph unicode="K" horiz-adv-x="862" d="M797 86q7 -14 7 -28q0 -11 -4 -22q-9 -26 -34 -38q-14 -7 -28 -7q-11 0 -22 4q-26 9 -36 34l-295 608l-115 -160v-420q0 -29 -18.5 -47t-46.5 -18q-27 0 -46.5 18.5t-19.5 46.5v1188q0 29 19.5 47.5t46.5 18.5q29 0 47 -18.5t18 -47.5v-543l414 582q16 23 43 27q5 1 11 1 q21 0 38 -14q23 -16 27 -43q1 -5 1 -10q0 -21 -13 -39l-318 -446z" />
<glyph unicode="L" horiz-adv-x="712" d="M205 0q-29 0 -47.5 18.5t-18.5 47.5v1179q0 29 18.5 47.5t47.5 18.5q27 0 46 -18.5t19 -47.5v-1114h344q27 0 46.5 -18.5t19.5 -46.5q0 -29 -19.5 -47.5t-46.5 -18.5h-409z" />
<glyph unicode="M" horiz-adv-x="1064" d="M205 -8q-29 0 -47.5 18.5t-18.5 46.5v1188q0 23 14.5 41.5t36.5 22.5q7 1 14 1q15 0 29 -6q20 -9 31 -30l105 -221l88 -190l75 -161l34 73l41 88l44 95l45 95l105 221q10 20 30 30q14 6 30 6q7 0 13 -1q23 -4 37.5 -22.5t14.5 -41.5v-1188q0 -29 -19.5 -47t-46.5 -18 q-29 0 -47 18.5t-18 46.5v895l-73 -154l-65 -139l-65 -139q-20 -37 -60 -37q-43 0 -59 37l-65 139l-66 139l-72 154v-895q0 -29 -19 -47t-46 -18z" />
<glyph unicode="N" horiz-adv-x="983" d="M793 -6q-8 -2 -17 -2q-14 0 -26 6q-20 10 -31 31l-168 346l-73 149l-75 155l-70 148l-63 131v-901q0 -29 -18.5 -47t-46.5 -18q-29 0 -47.5 18.5t-18.5 46.5v1188q0 23 14.5 41.5t36.5 22.5q23 4 43.5 -5.5t30.5 -29.5l166 -346l73 -150l75 -154l71 -149l64 -131v901 q0 29 18.5 47.5t46.5 18.5q29 0 47.5 -18.5t18.5 -47.5v-1188q0 -23 -14 -41t-37 -22z" />
<glyph unicode="O" d="M426 -8q-66 0 -122 24.5t-98 66.5t-66.5 98.5t-24.5 121.5v696q0 63 24.5 121t66.5 100t98 66.5t122 24.5q63 0 120.5 -24.5t99.5 -66.5t66.5 -99.5t24.5 -121.5v-696q0 -66 -24.5 -122t-66.5 -98t-99.5 -66.5t-120.5 -24.5zM426 1180q-76 0 -128 -53.5t-52 -127.5v-696 q0 -76 52 -128t128 -52q74 0 127 52t53 128v696q0 37 -14 70t-39 57.5t-57.5 39t-69.5 14.5z" />
<glyph unicode="P" horiz-adv-x="819" d="M139 1237q0 29 18.5 47.5t47.5 18.5h246q63 0 120.5 -25t99.5 -67t66.5 -99t24.5 -121v-114q0 -66 -24.5 -122.5t-66.5 -98.5t-99.5 -66.5t-120.5 -24.5h-181v-508q0 -29 -18.5 -47t-46.5 -18q-29 0 -47.5 18.5t-18.5 46.5v1180zM631 991q0 37 -14.5 70t-39 57.5 t-57.5 38.5t-69 14h-181v-475h181q74 0 127 52.5t53 128.5v114z" />
<glyph unicode="Q" d="M115 999q0 63 24.5 121t66.5 100t98 66.5t122 24.5q63 0 120.5 -24.5t99.5 -66.5t66.5 -99.5t24.5 -121.5v-696q0 -70 -27.5 -129t-74.5 -102l94 -162q9 -14 9 -30q0 -9 -3 -19q-8 -27 -30 -41q-14 -8 -31 -8q-9 0 -19 3q-27 7 -41 29l-92 162q-23 -6 -47 -10t-49 -4 q-66 0 -122 24.5t-98 66.5t-66.5 98.5t-24.5 121.5v696zM426 1180q-37 0 -69.5 -14.5t-57.5 -39t-39 -57.5t-14 -70v-696q0 -76 53 -128t127 -52q76 0 128 52t52 128v696q0 74 -52 127.5t-128 53.5z" />
<glyph unicode="R" d="M762 877q0 -98 -53.5 -176t-139.5 -113l189 -508q5 -12 5 -24q0 -13 -6 -25q-11 -25 -38 -35q-12 -5 -24 -5l-25 6q-25 11 -35 38l-197 530h-168v-508q0 -29 -18.5 -47t-46.5 -18q-27 0 -46.5 18.5t-19.5 46.5v1180q0 29 19.5 47.5t46.5 18.5h246q63 0 120.5 -25 t99.5 -67t66.5 -99t24.5 -121v-114zM451 696q76 0 128 52.5t52 128.5v114q0 74 -52.5 127t-127.5 53h-181v-475h181z" />
<glyph unicode="S" horiz-adv-x="782" d="M492 162q70 51 75 137q1 9 1 18q0 32 -11 62q-14 39 -43 67l-328 336q-47 47 -69 111q-18 50 -18 101q0 14 1 28q4 68 37 126t86 99t119 57q34 8 68 7l63 -6q66 -14 119 -52.5t88 -97.5q14 -23 7 -49.5t-32 -40.5q-23 -14 -49 -6t-39 31q-41 70 -121 86q-20 4 -39 4 q-57 0 -106 -37q-63 -47 -70 -129q-1 -8 0 -16q0 -70 50 -124l327 -337q47 -49 71 -114q20 -55 20 -114q0 -10 -1 -20q-6 -70 -38.5 -130.5t-88.5 -101.5q-55 -41 -122 -57q-36 -9 -73 -9l-63 7q-68 14 -124 54t-91 100q-8 16 -7 31q0 9 2 19q7 26 30 40t49.5 7t40.5 -32 q20 -35 53 -58.5t74 -31.5q20 -4 40 -4q61 0 112 39z" />
<glyph unicode="T" horiz-adv-x="778" d="M655 1303q29 0 47.5 -18.5t18.5 -47.5t-18.5 -47.5t-47.5 -18.5h-200v-1114q0 -29 -18.5 -47t-47.5 -18q-27 0 -46 18.5t-19 46.5v1114h-201q-27 0 -46.5 18.5t-19.5 47.5t19.5 47.5t46.5 18.5h532z" />
<glyph unicode="U" horiz-adv-x="868" d="M254 303q0 -76 52 -128t128 -52q74 0 127 52t53 128v942q0 29 18.5 47.5t47.5 18.5q27 0 46 -18.5t19 -47.5v-942q0 -66 -24.5 -122t-67.5 -98t-99 -66.5t-120 -24.5q-66 0 -122 24.5t-98 66.5t-66.5 98.5t-24.5 121.5v942q0 29 18.5 47.5t46.5 18.5q27 0 46.5 -18.5 t19.5 -47.5v-942z" />
<glyph unicode="V" horiz-adv-x="917" d="M70 1227q-3 10 -3 20q0 16 8 30q13 24 40 32q8 2 16 2q18 0 34 -9q24 -13 30 -40l102 -367l43 -157l44 -158l41 -150l36 -127l34 127l41 150l44 158l43 157l102 367q6 27 30 40q16 9 33 9q8 0 17 -2q27 -8 40 -32q8 -15 8 -30q0 -10 -3 -20l-328 -1188 q-4 -20 -21.5 -33.5t-39.5 -13.5q-23 0 -40.5 13t-23.5 34z" />
<glyph unicode="W" horiz-adv-x="1429" d="M78 1229q-2 9 -2 17q0 18 9 34q13 23 40 29t50.5 -7.5t29.5 -41.5l82 -342q16 -72 36 -149l37 -154l36 -148l32 -131l31 131l35 148l36 154l37 149l84 342q4 23 22.5 37t41.5 14q49 0 63 -51l82 -342q16 -72 36 -149l38 -154l36 -148l31 -131l31 131l35 148l37 154 l37 149l84 342q6 29 28.5 42t49.5 7t40 -29q10 -16 11 -35q0 -8 -2 -16l-287 -1188q-6 -23 -23.5 -36t-40.5 -13t-41 13t-22 36l-84 342l-37 149l-37 155l-35 149l-30 131l-32 -131l-36 -149l-38 -155l-36 -149l-81 -342q-6 -23 -23.5 -36t-40.5 -13t-41 13t-22 36z" />
<glyph unicode="X" horiz-adv-x="864" d="M96 -2q-25 12 -34 38q-4 11 -3 22q0 14 7 28l292 586l-272 545q-12 23 -3 49t34 39q13 6 26 5q11 0 23 -3q27 -8 39 -33l227 -455l227 455q12 25 38 33q11 4 23 3q14 0 28 -5q25 -12 32.5 -39t-2.5 -49l-272 -545l293 -586q6 -14 5 -28q0 -11 -3 -22q-8 -26 -33 -38 q-14 -7 -28 -7q-11 0 -22 4q-26 9 -38 34l-248 495l-248 -495q-12 -25 -39 -34q-11 -4 -22 -4q-14 0 -27 7z" />
<glyph unicode="Y" horiz-adv-x="823" d="M346 655l-280 562q-7 13 -7 27q0 11 3 22q9 27 34 39q13 6 27 5q11 0 22 -3q27 -8 39 -33l228 -455l227 455q12 25 38 33q11 4 22 3q14 0 28 -5q25 -12 34 -39q4 -11 4 -22q0 -14 -7 -27l-281 -562v-598q0 -29 -18.5 -47t-46.5 -18q-29 0 -47.5 18.5t-18.5 46.5v598z" />
<glyph unicode="Z" horiz-adv-x="786" d="M82 66q0 12 6 24l201 481l79 189l73 176l61 144l39 91h-394q-29 0 -47 18.5t-18 47.5t18.5 47.5t46.5 18.5h492q37 0 55 -29q10 -20 11 -37q0 -8 -5 -25l-202 -483l-80 -189l-74 -176l-60 -143l-38 -90h393q29 0 47.5 -18.5t18.5 -46.5q0 -29 -18.5 -47.5t-47.5 -18.5 h-492q-37 0 -55 29q-10 21 -10 37z" />
<glyph unicode="[" horiz-adv-x="524" d="M205 -164q-29 0 -47.5 18.5t-18.5 47.5v1499q0 29 18.5 47t47.5 18h205q29 0 47 -18t18 -47t-18.5 -47.5t-46.5 -18.5h-140v-1368h140q29 0 47 -18.5t18 -46.5q0 -29 -18.5 -47.5t-46.5 -18.5h-205z" />
<glyph unicode="\" d="M733 -2q10 -27 -1 -50.5t-38 -33.5q-25 -10 -49 1t-35 38l-491 1352q-10 27 2 50t37 34q27 10 50 -2.5t34 -36.5z" />
<glyph unicode="]" horiz-adv-x="524" d="M319 1466q27 0 46.5 -18t19.5 -47v-1499q0 -29 -19.5 -47.5t-46.5 -18.5h-204q-29 0 -47.5 18.5t-18.5 47.5t18.5 47t47.5 18h139v1368h-139q-29 0 -47.5 18.5t-18.5 47.5t18.5 47t47.5 18h204z" />
<glyph unicode="^" horiz-adv-x="1024" d="M145 827q-20 18 -21 45t15 48l324 368q18 23 49 23t49 -23l324 -368q16 -20 15 -47t-21 -46q-23 -18 -49.5 -16t-45.5 23l-108 124l-91 104l-73 83l-74 -83l-90 -104l-108 -124q-18 -20 -45 -22.5t-50 15.5z" />
<glyph unicode="_" horiz-adv-x="1024" d="M1024 -164q27 0 46.5 -18.5t19.5 -46.5q0 -29 -19.5 -47.5t-46.5 -18.5h-1024q-29 0 -47.5 18.5t-18.5 47.5t18.5 47t47.5 18h1024z" />
<glyph unicode="`" horiz-adv-x="1024" d="M659 1151q20 -18 21.5 -45t-16.5 -47q-18 -23 -45 -24t-48 18l-204 184q-20 18 -21.5 45t14.5 47q18 20 46 22.5t49 -16.5z" />
<glyph unicode="a" horiz-adv-x="720" d="M471 537v139q0 43 -23.5 77.5t-62.5 51.5q-27 11 -55 11l-27 -3q-41 -8 -70 -39q-18 -18 -45 -18q-25 0 -43 18t-18 43q0 27 18 43q57 57 136 73q26 5 51 5q51 0 100 -20q74 -31 118 -96.5t44 -145.5v-610q0 -27 -18.5 -44.5t-43.5 -17.5h-204q-55 0 -103.5 20.5 t-85.5 57.5t-57.5 85t-20.5 103t20.5 103.5t57.5 85.5t85 57.5t104 20.5h143zM184 270q0 -59 42 -101t102 -42h143v287h-143q-59 0 -101.5 -42.5t-42.5 -101.5z" />
<glyph unicode="b" horiz-adv-x="794" d="M205 4q-27 0 -44.5 17.5t-17.5 44.5v1220q0 27 17.5 44.5t44.5 17.5q25 0 43 -17.5t18 -44.5v-356h144q55 0 103 -20.5t84 -57.5t57.5 -85t21.5 -103v-394q0 -55 -21.5 -103t-57.5 -85t-84 -57.5t-103 -20.5h-205zM266 807v-680h144q59 0 101 42t42 101v394q0 59 -42 101 t-101 42h-144z" />
<glyph unicode="c" horiz-adv-x="671" d="M283 16q-76 31 -120 97.5t-44 148.5v410q0 82 44 148.5t120 97.5q51 20 102 20q26 0 51 -5q78 -15 137 -73q16 -18 17 -45q0 -25 -17 -43q-18 -16 -45 -16q-25 0 -43 16q-31 33 -72 41q-14 3 -28 3q-28 0 -55 -11q-41 -16 -64.5 -53t-23.5 -80v-410q0 -43 23.5 -80 t64.5 -53q27 -11 55 -11q14 0 28 3q42 8 72 39q18 18 43 18q27 0 45 -18q16 -16 17 -43q0 -25 -17 -43q-59 -57 -137 -73q-26 -5 -51 -5q-51 0 -102 20z" />
<glyph unicode="d" horiz-adv-x="794" d="M385 4q-55 0 -103.5 20.5t-85 57.5t-57 85t-20.5 103v394q0 55 20.5 103t57 85t85 57.5t103.5 20.5h143v356q0 27 17.5 44.5t44.5 17.5q25 0 43 -17.5t18 -44.5v-1220q0 -27 -18.5 -44.5t-42.5 -17.5h-205zM385 807q-59 0 -101 -42t-42 -101v-394q0 -59 42 -101t101 -42 h143v680h-143z" />
<glyph unicode="e" horiz-adv-x="753" d="M283 16q-76 31 -120 97.5t-44 148.5v410q0 55 20.5 103t57 85t85 57.5t103.5 20.5t103.5 -20.5t85 -57.5t57 -85t20.5 -103v-205q0 -27 -17.5 -44t-43.5 -17h-348v-144q0 -43 23.5 -80t64.5 -53q27 -11 55 -11q14 0 28 3q42 8 72 39q18 18 43 18q27 0 45 -18 q18 -16 19 -43q0 -25 -19 -43q-57 -57 -136 -73q-26 -5 -52 -5q-51 0 -102 20zM385 815q-59 0 -101 -42t-42 -101v-144h286v144q0 59 -42 101t-101 42z" />
<glyph unicode="f" horiz-adv-x="606" d="M115 807q-27 0 -44.5 17.5t-17.5 43.5q0 27 17.5 44.5t44.5 17.5h102v151q0 55 20.5 103.5t57.5 85.5t85 57.5t103 20.5q27 0 44.5 -17.5t17.5 -44.5t-17.5 -44t-44.5 -17q-59 0 -101 -42t-42 -102v-151h143q27 0 44.5 -17.5t17.5 -44.5t-17.5 -44t-44.5 -17h-143v-750 q0 -27 -17.5 -44t-43.5 -17q-27 0 -44.5 17.5t-17.5 43.5v750h-102z" />
<glyph unicode="g" horiz-adv-x="786" d="M385 4q-55 0 -103.5 20.5t-85 57.5t-57 85t-20.5 103v394q0 55 20.5 103t57 85t85 57.5t103.5 20.5h205q27 0 44 -17.5t17 -44.5v-1015q0 -82 -44 -148.5t-120 -97.5q-51 -20 -102 -21q-26 0 -51 5q-78 15 -137 73q-18 18 -19 45q0 25 19 41q18 18 43 19q27 0 45 -19 q31 -31 72 -39q14 -3 28 -2q28 0 55 10q41 16 64.5 53.5t23.5 80.5v151h-143zM385 807q-59 0 -101 -42t-42 -101v-394q0 -59 42 -101t101 -42h143v680h-143z" />
<glyph unicode="h" horiz-adv-x="802" d="M205 -4q-25 0 -43.5 17.5t-18.5 43.5v1229q0 27 18.5 44.5t43.5 17.5q27 0 44 -17.5t17 -44.5v-356h144q55 0 103 -20.5t85 -57.5t57.5 -85t20.5 -103v-607q0 -27 -17.5 -44t-44.5 -17q-25 0 -43 17.5t-18 43.5v607q0 59 -42 101t-101 42h-144v-750q0 -27 -17 -44 t-44 -17z" />
<glyph unicode="i" horiz-adv-x="409" d="M205 1102q-35 0 -58.5 23.5t-23.5 58.5t23.5 58.5t58.5 23.5t58.5 -23.5t23.5 -58.5t-23.5 -58.5t-58.5 -23.5zM266 57q0 -27 -17.5 -44t-43.5 -17q-25 0 -43.5 17.5t-18.5 43.5v820q0 27 18.5 44t43.5 17q27 0 44 -17.5t17 -43.5v-820z" />
<glyph unicode="j" horiz-adv-x="425" d="M221 1102q-35 0 -58.5 23.5t-23.5 58.5t23.5 58.5t58.5 23.5t58.5 -23.5t23.5 -58.5t-23.5 -58.5t-58.5 -23.5zM16 -414q-25 0 -43 17.5t-18 44.5t18.5 44t42.5 17q59 0 101.5 42t42.5 102v1024q0 27 18.5 44t42.5 17q27 0 44.5 -17.5t17.5 -43.5v-1024 q0 -55 -20.5 -103.5t-57.5 -85.5t-85.5 -57.5t-103.5 -20.5z" />
<glyph unicode="k" horiz-adv-x="778" d="M709 86q8 -14 7 -29q0 -9 -2 -17q-7 -24 -30 -36q-15 -8 -31 -8q-8 0 -16 2q-25 6 -37 29l-235 432l-99 -109v-293q0 -27 -18.5 -44t-42.5 -17q-27 0 -44.5 17.5t-17.5 43.5v1229q0 27 17.5 44.5t44.5 17.5q25 0 43 -17.5t18 -44.5v-751l342 383q16 18 42 19t46 -15 q20 -17 20 -45q0 -24 -16 -41l-249 -279z" />
<glyph unicode="l" horiz-adv-x="409" d="M250 4q-51 31 -82 83t-31 112v1087q0 27 18.5 44.5t43.5 17.5q27 0 44 -17.5t17 -44.5v-1087q0 -29 14.5 -51.5t36.5 -36.5q23 -12 30 -37q2 -8 2 -16q0 -16 -9 -31q-12 -23 -37 -29q-8 -2 -16 -2q-16 0 -31 8z" />
<glyph unicode="m" horiz-adv-x="1212" d="M266 807v-750q0 -27 -18.5 -44t-42.5 -17q-27 0 -44.5 17.5t-17.5 43.5v811q0 27 17.5 44.5t44.5 17.5h614q55 0 103.5 -20.5t84 -57.5t57 -85t21.5 -103v-607q0 -27 -18 -44t-43 -17q-27 0 -44 17.5t-17 43.5v607q0 59 -42 101t-102 42h-143v-750q0 -27 -18.5 -44 t-43.5 -17q-27 0 -44 17.5t-17 43.5v750h-287z" />
<glyph unicode="n" horiz-adv-x="802" d="M205 -4q-27 0 -44.5 17.5t-17.5 43.5v811q0 27 17.5 44.5t44.5 17.5h205q55 0 103 -20.5t84 -57.5t57.5 -85t21.5 -103v-607q0 -27 -18.5 -44t-43.5 -17q-27 0 -44 17.5t-17 43.5v607q0 59 -42 101t-101 42h-144v-750q0 -27 -18 -44t-43 -17z" />
<glyph unicode="o" horiz-adv-x="770" d="M385 -4q-55 0 -103.5 20.5t-85 57.5t-57 85t-20.5 103v410q0 55 20.5 103t57 85t85 57.5t103.5 20.5t103.5 -20.5t84 -57.5t57 -85t21.5 -103v-410q0 -55 -21.5 -103t-57 -85t-84 -57.5t-103.5 -20.5zM385 815q-59 0 -101 -42t-42 -101v-410q0 -59 42 -101t101 -42 t101 42t42 101v410q0 59 -42 101t-101 42z" />
<glyph unicode="p" horiz-adv-x="794" d="M205 -414q-27 0 -44.5 17.5t-17.5 44.5v1220q0 27 17.5 44.5t44.5 17.5h205q55 0 103 -20.5t84 -57.5t57.5 -85t21.5 -103v-394q0 -55 -21.5 -103t-57.5 -85t-84 -57.5t-103 -20.5h-144v-356q0 -27 -18 -44.5t-43 -17.5zM553 664q0 59 -42 101t-101 42h-144v-680h144 q59 0 101 42t42 101v394z" />
<glyph unicode="q" horiz-adv-x="794" d="M385 4q-55 0 -103.5 20.5t-85 57.5t-57 85t-20.5 103v394q0 55 20.5 103t57 85t85 57.5t103.5 20.5h205q25 0 43 -17.5t18 -44.5v-1220q0 -27 -18.5 -44.5t-42.5 -17.5q-27 0 -44.5 17.5t-17.5 44.5v356h-143zM385 807q-59 0 -101 -42t-42 -101v-394q0 -59 42 -101 t101 -42h143v680h-143z" />
<glyph unicode="r" horiz-adv-x="612" d="M205 -4q-27 0 -44.5 17.5t-17.5 43.5v811q0 27 17.5 44.5t44.5 17.5h205q70 0 133 -35q23 -14 28 -38q2 -7 2 -15q0 -15 -8 -31q-12 -23 -36.5 -30t-47.5 7q-35 18 -71 19h-144v-750q0 -27 -17 -44t-44 -17z" />
<glyph unicode="s" horiz-adv-x="673" d="M414 154q42 38 41 90v14q-4 61 -56 98l-190 136q-47 33 -73.5 81t-31.5 103q-1 9 0 18q0 47 18 90q22 51 62 88q41 39 95 56q35 11 71 11q18 0 37 -3q55 -10 101.5 -41t74.5 -80q12 -23 6 -47.5t-28 -36.5q-23 -12 -47.5 -6t-36.5 29q-29 49 -88 59q-12 2 -23 2 q-45 0 -80 -33q-39 -36 -39 -88q0 -67 54 -102l190 -133q47 -35 74.5 -84t32.5 -109q1 -10 0 -19q0 -49 -18 -92q-22 -52 -64 -92q-43 -41 -98 -57q-36 -11 -73 -11q-19 0 -38 3q-59 10 -106.5 42t-76.5 83q-8 15 -8 31q0 8 2 16q6 25 29 37t47.5 6t36.5 -29q33 -53 94 -63 q11 -2 23 -2q46 0 86 35z" />
<glyph unicode="t" horiz-adv-x="606" d="M115 807q-27 0 -44.5 17.5t-17.5 43.5q0 27 17.5 44.5t44.5 17.5h102v356q0 27 17.5 44.5t44.5 17.5t44 -17.5t17 -44.5v-356h143q27 0 44.5 -17.5t17.5 -44.5t-17.5 -44t-44.5 -17h-143v-545q0 -59 42 -101t101 -42q27 0 44.5 -17.5t17.5 -44.5t-17.5 -44t-44.5 -17 q-55 0 -103 20.5t-85 57.5t-57.5 85t-20.5 103v545h-102z" />
<glyph unicode="u" horiz-adv-x="802" d="M393 4q-55 0 -103 20.5t-85 57.5t-57.5 85t-20.5 103v607q0 27 17.5 44t43.5 17q27 0 44.5 -17.5t17.5 -43.5v-607q0 -59 42 -101t101 -42h144v750q0 27 17 44t44 17t44 -17.5t17 -43.5v-811q0 -27 -17 -44.5t-44 -17.5h-205z" />
<glyph unicode="v" horiz-adv-x="757" d="M74 858q-2 8 -2 16q0 16 8 31q12 23 37 31q8 2 15 2l30 -8q23 -12 31 -35l67 -227l61 -204l58 -194l57 194l62 204l67 227q8 23 31 35q15 8 31 8q8 0 16 -2q25 -8 37 -31q7 -14 7 -28q0 -10 -3 -19l-246 -819q-6 -18 -22.5 -30.5t-36.5 -12.5t-36.5 12t-23.5 31z" />
<glyph unicode="w" horiz-adv-x="1101" d="M80 862q-2 8 -2 15q0 16 9 31q13 22 38 28t46.5 -7.5t27.5 -37.5l51 -201l47 -187l47 -192l48 192l48 187l49 201q14 47 60 47q23 0 39 -12.5t20 -34.5l51 -201l48 -187l47 -192l48 192l48 187l49 201q6 25 27.5 38t48.5 7q25 -6 37 -28q8 -14 8 -30q0 -8 -2 -16 l-205 -819q-4 -23 -20.5 -35t-38.5 -12q-45 0 -60 47l-49 201l-48 186l-48 193l-47 -193l-47 -186l-52 -201q-4 -23 -20 -35t-39 -12q-45 0 -59 47z" />
<glyph unicode="x" horiz-adv-x="737" d="M111 4q-23 12 -30 36q-3 9 -3 17q0 15 8 29l213 389l-205 371q-12 23 -5 47.5t30 36.5q14 8 29 8q9 0 18 -3q25 -7 37 -30l166 -303l168 303q12 23 36 30q9 3 18 3q15 0 30 -8q23 -12 29.5 -37t-5.5 -47l-205 -371l213 -389q8 -14 8 -29q0 -9 -3 -17q-7 -24 -29 -36 q-15 -8 -31 -8q-8 0 -16 2q-25 6 -37 29l-176 319l-174 -319q-12 -23 -37 -29q-8 -2 -16 -2q-16 0 -31 8z" />
<glyph unicode="y" horiz-adv-x="755" d="M102 -414q-27 0 -44 17.5t-17 44.5t17.5 44t43.5 17q47 0 85 27.5t53 75.5l73 245l-239 801q-8 25 4 47.5t37 30.5q8 2 16 2q16 0 30 -8q22 -12 29 -35l187 -625l188 625q6 23 29 35q15 8 31 8q8 0 16 -2q25 -8 37 -31q7 -14 7 -28q0 -10 -3 -19l-246 -819l-78 -262 q-29 -88 -96 -137q-72 -54 -160 -54z" />
<glyph unicode="z" horiz-adv-x="704" d="M86 66q0 12 6 28l154 303l62 121l61 117l51 100l37 72h-310q-27 0 -44 17.5t-17 43.5q0 27 17.5 44.5t43.5 17.5h410q35 0 51 -29q10 -16 10 -33q0 -8 -2 -14t-6 -14l-153 -303l-63 -122l-59 -118l-51 -99q-24 -44 -36 -71h309q25 0 43 -17.5t18 -43.5q0 -27 -18 -44.5 t-43 -17.5h-410q-37 0 -53 29q-8 15 -8 33z" />
<glyph unicode="{" horiz-adv-x="524" d="M328 836q0 -47 -18.5 -90.5t-51.5 -73.5q33 -31 51.5 -74t18.5 -90v-451q0 -41 28.5 -69.5t69.5 -28.5q29 0 47.5 -18.5t18.5 -46.5q0 -29 -18.5 -47.5t-47.5 -18.5q-47 0 -89 18.5t-73 49t-49 72.5t-18 89v451q0 41 -29 69.5t-70 28.5q-29 0 -47 18.5t-18 47.5t18.5 47 t46.5 18q41 0 70 29t29 70v409q0 47 18 89t49 73t73 49.5t89 18.5q29 0 47.5 -18.5t18.5 -47.5t-18.5 -47.5t-47.5 -18.5q-41 0 -69.5 -28.5t-28.5 -69.5v-409z" />
<glyph unicode="|" horiz-adv-x="425" d="M223 1761q29 0 47.5 -18.5t18.5 -46.5v-2048q0 -29 -18.5 -47.5t-47.5 -18.5t-47 18.5t-18 47.5v2048q0 29 18 47t47 18z" />
<glyph unicode="}" horiz-adv-x="524" d="M197 508q0 100 67 164q-68 63 -67 164v409q0 41 -29 69.5t-70 28.5q-29 0 -47 18.5t-18 47.5t18.5 47.5t46.5 18.5q47 0 89 -18.5t73 -49.5t49.5 -73t18.5 -89v-409q0 -41 28.5 -70t69.5 -29q27 0 46.5 -18.5t19.5 -46.5q0 -29 -19.5 -47.5t-46.5 -18.5 q-41 0 -69.5 -28.5t-28.5 -69.5v-451q0 -47 -18.5 -89t-49.5 -72.5t-73 -49t-89 -18.5q-29 0 -47 18.5t-18 47.5t18.5 47t46.5 18q41 0 70 28.5t29 69.5v451z" />
<glyph unicode="~" d="M737 621q23 -14 28 -39t-9 -47q-29 -43 -72 -71t-92 -36q-104 -18 -191 45l-24 19q-41 33 -94 22q-51 -10 -80 -53q-14 -23 -39 -28t-47 11q-23 14 -28 39t9 47q57 90 164 107q49 10 99.5 -2t91.5 -43l24 -19q41 -33 94 -22q51 10 80 53q14 23 38.5 27t47.5 -10z" />
<glyph unicode="&#xa1;" horiz-adv-x="409" d="M205 942q35 0 60.5 -25.5t25.5 -60.5t-25.5 -60.5t-60.5 -25.5t-60.5 25.5t-25.5 60.5t25.5 60.5t60.5 25.5zM205 614q29 0 47 -18t18 -47v-819q0 -29 -18.5 -47.5t-46.5 -18.5q-27 0 -46.5 18.5t-19.5 47.5v819q0 29 19.5 47t46.5 18z" />
<glyph unicode="&#xa2;" d="M401 801q-41 -16 -63.5 -51t-22.5 -78v-410q0 -43 22.5 -77.5t63.5 -51.5q27 -10 52 -10h2h2q55 0 96 41q18 18 45 18t47 -18q18 -20 19 -47q0 -27 -19 -45q-27 -29 -58.5 -45.5t-66.5 -26.5v-106q0 -29 -19.5 -47.5t-45.5 -18.5q-29 0 -47.5 18.5t-18.5 47.5v106 q-20 2 -39 12q-76 33 -121 99.5t-45 150.5v410q0 84 45 150.5t121 99.5q10 4 19.5 6t19.5 6v106q0 29 18.5 47.5t47.5 18.5q27 0 46 -18.5t19 -47.5v-106q35 -10 66.5 -26.5t58.5 -45.5q18 -18 19 -45q0 -27 -19 -47q-20 -18 -47 -18t-45 18q-41 41 -96 41h-2h-2 q-25 0 -52 -10z" />
<glyph unicode="&#xa3;" d="M713 131q29 0 47 -18.5t18 -46.5q0 -29 -18.5 -47.5t-46.5 -18.5h-574q-23 0 -41 15.5t-22 39.5q-4 23 8 43.5t35 28.5q53 20 86 66.5t33 103.5v309h-99q-27 0 -46 18.5t-19 47.5t19.5 47t45.5 18h99v303q0 92 56 165t144 95q90 25 174 -10t131 -114q12 -23 5 -49.5 t-29 -41.5q-23 -14 -49.5 -6t-40.5 31q-23 41 -67 59.5t-89 6.5q-47 -12 -75.5 -50.5t-28.5 -85.5v-303h180q29 0 47 -18.5t18 -46.5q0 -29 -18 -47.5t-47 -18.5h-180v-309q0 -90 -47 -166h391z" />
<glyph unicode="&#xa4;" d="M426 360q-47 0 -90 13.5t-78 36.5l-76 -74q-18 -20 -47 -21q-27 0 -45 21q-20 18 -20 45q0 29 20 47l74 76q-23 35 -36 78t-13 90t13 90t36 78l-74 75q-20 18 -20 46q0 29 20 47q18 18 45 18q29 0 47 -18l76 -74q35 23 78 36t90 13t90 -13.5t78 -35.5l76 74q18 18 45 18 q29 0 47 -18q20 -18 20 -47q0 -27 -20 -46l-74 -75q23 -35 36 -78t13 -90t-13 -90t-36 -78l74 -76q20 -18 20 -47q0 -27 -20 -45q-18 -20 -47 -21q-27 0 -45 21l-76 74q-35 -23 -78 -36.5t-90 -13.5zM606 672q0 74 -52 127t-128 53t-128 -53.5t-52 -126.5q0 -76 52 -128 t128 -52t128 52t52 128z" />
<glyph unicode="&#xa5;" d="M360 279h-172q-29 0 -47 18t-18 47t18.5 47.5t46.5 18.5h172v196h-172q-29 0 -47 18.5t-18 47.5t18.5 47t46.5 18h131l-239 480q-12 23 -3 49t34 39q23 10 49 1.5t39 -32.5l227 -455l227 455q12 25 38 33t50 -2q25 -12 33 -39t-2 -49l-240 -480h148q29 0 47 -18.5 t18 -46.5q0 -29 -18 -47.5t-47 -18.5h-188v-196h188q29 0 47 -18.5t18 -47.5t-18 -47t-47 -18h-188v-222q0 -29 -18.5 -47t-47.5 -18t-47.5 18.5t-18.5 46.5v222z" />
<glyph unicode="&#xa6;" horiz-adv-x="425" d="M213 532q29 0 47.5 -18t18.5 -47v-819q0 -29 -18.5 -47.5t-47.5 -18.5t-47.5 18.5t-18.5 47.5v819q0 29 18.5 47t47.5 18zM213 1761q29 0 47.5 -18.5t18.5 -46.5v-819q0 -29 -18.5 -47.5t-47.5 -18.5t-47.5 18.5t-18.5 47.5v819q0 29 18.5 47t47.5 18z" />
<glyph unicode="&#xa7;" d="M594 784q55 -43 79.5 -107.5t10.5 -131.5q-8 -41 -28.5 -77t-49.5 -65q57 -68 58 -157q2 -55 -20.5 -106.5t-65.5 -86.5q-90 -76 -205 -57q-55 10 -100.5 41t-73.5 80q-14 23 -7 49.5t31 40.5q23 12 48.5 5t39.5 -30q29 -47 84 -57q53 -10 97 27q20 16 31.5 40.5 t8.5 51.5q0 57 -43 90l-229 182h-2q-53 45 -77.5 109.5t-10.5 132.5q16 86 78 141q-55 66 -60 158q0 55 22.5 106t65.5 86q41 37 95.5 52.5t109.5 5.5t100.5 -41t73.5 -80q14 -23 7 -49.5t-31 -40.5q-23 -14 -48.5 -6t-39.5 30q-29 47 -84 58q-53 10 -97 -27 q-43 -35 -43 -92q4 -57 46 -90zM504 489q20 14 33.5 35t17.5 43q6 33 -5 64t-36 51l-164 131q-43 -31 -53 -78q-12 -72 43 -114z" />
<glyph unicode="&#xa8;" horiz-adv-x="1024" d="M590 1184q0 35 25.5 60.5t60.5 25.5t60.5 -25.5t25.5 -60.5t-25.5 -60.5t-60.5 -25.5t-60.5 25.5t-25.5 60.5zM262 1184q0 35 25.5 60.5t60.5 25.5t60.5 -25.5t25.5 -60.5t-25.5 -60.5t-60.5 -25.5t-60.5 25.5t-25.5 60.5z" />
<glyph unicode="&#xa9;" horiz-adv-x="1470" d="M711 893q-35 -10 -55.5 -37t-20.5 -61v-287q0 -35 20.5 -61.5t55.5 -36.5q33 -10 64.5 4t47.5 43q14 23 39 30t47 -8q23 -12 30 -36.5t-7 -47.5q-39 -68 -109.5 -97.5t-144.5 -8.5q-74 20 -121 80.5t-47 138.5v287q0 78 47 138t121 81q74 20 144.5 -10.5t109.5 -96.5 q14 -23 7 -47t-30 -37q-23 -14 -47 -7t-39 30q-16 29 -47.5 43t-64.5 4zM1393 651q0 -133 -49.5 -251.5t-143.5 -213.5q-92 -92 -212 -142t-253 -50q-131 0 -250.5 50t-212.5 142q-94 94 -143 213t-49 252t49 252t143 213q92 92 212 141.5t251 49.5q133 0 253 -49.5 t212 -141.5q94 -94 143.5 -213t49.5 -252zM735 119q109 0 205 40t172 115q76 76 116 173.5t40 203.5t-40 202.5t-116 172.5t-172 116t-205 40q-106 0 -202.5 -40t-172.5 -116t-115.5 -172t-39.5 -203q0 -106 40 -203.5t115 -173.5q76 -76 172.5 -115.5t202.5 -39.5z" />
<glyph unicode="&#xaa;" horiz-adv-x="624" d="M367 1296q66 -16 107.5 -70.5t41.5 -123.5v-430q0 -25 -17.5 -42.5t-41.5 -17.5h-144q-86 0 -144 58.5t-58 144.5q0 41 15 78t43 64.5t64.5 44t79.5 16.5h84v84q0 29 -16 51.5t-45 30.5t-54.5 -3.5t-41.5 -35.5q-12 -23 -35 -29t-45 6q-23 12 -29 36t6 44 q35 59 98.5 85.5t131.5 8.5zM229 815q0 -35 25 -59.5t59 -24.5h84v168h-84q-35 0 -59.5 -24.5t-24.5 -59.5z" />
<glyph unicode="&#xab;" horiz-adv-x="858" d="M729 836q0 -20 -8 -31l-47 -86l-37 -70q-18 -35 -29 -51l30 -56l40 -75l51 -92q8 -14 8 -31q0 -37 -32 -57q-25 -14 -50.5 -6t-40.5 32l-139 252q-16 31 0 64l131 237q14 25 40 33t50 -6q33 -20 33 -57zM336 287q-25 -14 -50.5 -6t-39.5 32l-140 252q-16 31 0 64l132 237 q14 25 39.5 33t50.5 -6q33 -20 32 -57q0 -20 -8 -31l-47 -86l-37 -70q-18 -35 -28 -51q10 -18 29 -56l40 -75l51 -92q8 -14 9 -31q0 -37 -33 -57z" />
<glyph unicode="&#xac;" d="M672 655q29 0 47 -18.5t18 -46.5v-246q0 -29 -18.5 -47t-46.5 -18q-27 0 -46.5 18t-19.5 47v180h-426q-27 0 -46 18.5t-19 47.5t19.5 47t45.5 18h492z" />
<glyph unicode="&#xad;" d="M737 590q0 -29 -19.5 -47.5t-45.5 -18.5h-492q-29 0 -47 18.5t-18 47.5t18.5 47t46.5 18h492q27 0 46 -18t19 -47z" />
<glyph unicode="&#xae;" horiz-adv-x="1470" d="M592 281q-25 0 -43.5 18t-18.5 45v606q0 27 18.5 44.5t43.5 17.5h164q47 0 88 -17.5t71.5 -48.5t49 -71.5t18.5 -88.5q0 -68 -35 -121t-92 -81l119 -209q12 -23 6 -47.5t-29 -38.5q-23 -12 -48 -5t-38 29l-141 246h-70v-215q0 -27 -18 -45t-45 -18zM858 786 q0 41 -29.5 71t-72.5 30h-101v-203h101q43 0 72.5 30.5t29.5 71.5zM80 651q0 133 49 252t143 213q92 92 212 141.5t251 49.5q133 0 253 -49.5t212 -141.5q94 -94 143.5 -213t49.5 -252t-49.5 -251.5t-143.5 -213.5q-92 -92 -212 -142t-253 -50q-131 0 -250.5 50t-212.5 142 q-94 94 -143 213t-49 252zM735 1182q-106 0 -202.5 -40t-172.5 -116t-115.5 -172t-39.5 -203q0 -106 40 -203.5t115 -173.5q76 -76 172.5 -115.5t202.5 -39.5q109 0 205 40t172 115q76 76 116 173.5t40 203.5t-40 202.5t-116 172.5t-172 116t-205 40z" />
<glyph unicode="&#xaf;" horiz-adv-x="1024" d="M1024 1597q27 0 46.5 -18t19.5 -47t-19.5 -47.5t-46.5 -18.5h-1024q-29 0 -47.5 18.5t-18.5 47.5t18.5 47t47.5 18h1024z" />
<glyph unicode="&#xb0;" horiz-adv-x="641" d="M565 1061q0 -51 -19.5 -95t-52 -77t-77.5 -52.5t-94 -19.5q-51 0 -95.5 19.5t-77 52.5t-52 77t-19.5 95q0 49 19.5 94t52 78t76.5 52.5t96 19.5q49 0 94 -19.5t77.5 -52.5t52 -78t19.5 -94zM197 1061q0 -53 35.5 -89t89.5 -36q53 0 88.5 36t35.5 89t-35.5 89t-88.5 36 t-89 -36t-36 -89z" />
<glyph unicode="&#xb1;" d="M672 131q29 0 47 -18.5t18 -46.5q0 -29 -18.5 -47.5t-46.5 -18.5h-492q-27 0 -46 18.5t-19 47.5t19.5 47t45.5 18h492zM672 655q29 0 47 -18.5t18 -46.5q0 -29 -18.5 -47.5t-46.5 -18.5h-180v-180q0 -29 -18.5 -47t-47.5 -18q-27 0 -46.5 18t-19.5 47v180h-180 q-27 0 -46 18.5t-19 47.5t19.5 47t45.5 18h180v181q0 29 19.5 47t46.5 18q29 0 47.5 -18.5t18.5 -46.5v-181h180z" />
<glyph unicode="&#xb2;" horiz-adv-x="608" d="M465 993l-68 -108l-61 -98l-57 -89h159q25 0 42.5 -17t17.5 -42t-17.5 -42t-42.5 -17h-268q-35 0 -51 30q-8 14 -8 31q0 16 10 29l246 387q20 29 10 63q-6 33 -39 54q-29 20 -64 10q-33 -8 -53 -39q-12 -23 -34.5 -29t-45.5 6t-29 36t7 44q43 74 125 96q84 18 155 -24 q74 -41 93 -127q18 -84 -27 -154z" />
<glyph unicode="&#xb3;" horiz-adv-x="606" d="M436 958q29 -29 44.5 -65.5t15.5 -77.5v-41q0 -70 -42 -124t-108 -70q-68 -18 -131 8t-98 86q-12 20 -6 43.5t28 36.5q23 12 45.5 6t34.5 -29q16 -25 42 -36t54 -3q29 8 45.5 30.5t16.5 51.5v41q0 35 -24.5 59.5t-59.5 24.5q-25 0 -42.5 17.5t-17.5 41.5q0 25 17.5 42.5 t42.5 17.5q47 0 74 41q23 43 0 86q-27 41 -74 41t-74 -41q-12 -23 -34.5 -29t-45.5 6t-29 36t7 44q29 47 76 75t100 28t100 -28t74 -75q29 -47 29 -100t-29 -101q-13 -25 -31 -43z" />
<glyph unicode="&#xb4;" horiz-adv-x="1024" d="M571 1335q20 18 47 16.5t46 -22.5q18 -20 17 -47t-22 -45l-204 -184q-20 -18 -48 -17.5t-45 23.5q-18 20 -17 47t22 45z" />
<glyph unicode="&#xb5;" horiz-adv-x="819" d="M614 938q27 0 44.5 -17.5t17.5 -43.5v-820q0 -27 -17.5 -44t-44.5 -17q-23 0 -38 12t-21 31q-66 -43 -145 -43q-80 0 -144 41v-389q0 -27 -17.5 -44.5t-43.5 -17.5q-27 0 -44.5 17.5t-17.5 44.5v1229q0 27 17.5 44t44.5 17t44 -17.5t17 -43.5v-615q0 -59 42 -101t102 -42 q59 0 101 42t42 101v615q0 27 17 44t44 17z" />
<glyph unicode="&#xb6;" horiz-adv-x="983" d="M889 1298q27 0 45 -17t18 -44t-18.5 -45t-44.5 -18h-80v-1280q0 -27 -18.5 -45.5t-45.5 -18.5t-44 18.5t-17 45.5v1280h-162v-1280q0 -27 -18.5 -45.5t-44.5 -18.5q-27 0 -44.5 18.5t-17.5 45.5v788h-20q-63 0 -119.5 24.5t-97.5 66.5t-65.5 98.5t-24.5 119.5t24.5 119.5 t65.5 97.5t97 65.5t120 24.5h512zM397 1174h-20q-76 0 -129 -53.5t-53 -129.5t53 -130t129 -54h20v367z" />
<glyph unicode="&#xb7;" horiz-adv-x="393" d="M111 795q0 35 25.5 60.5t60.5 25.5t60.5 -26t25.5 -60q0 -35 -26 -60.5t-60 -25.5q-35 0 -60.5 25.5t-25.5 60.5z" />
<glyph unicode="&#xb8;" horiz-adv-x="1024" d="M451 57q0 29 18 47.5t47 18.5t47.5 -18.5t18.5 -47.5v-125q0 -61 -31 -114.5t-84 -83.5q-23 -14 -49.5 -7t-40.5 29q-12 25 -5 50.5t29 39.5q49 29 50 86v125z" />
<glyph unicode="&#xb9;" horiz-adv-x="479" d="M317 1300q37 -16 37 -55v-614q0 -25 -17.5 -42.5t-41.5 -17.5q-25 0 -42 17.5t-17 42.5v473l-31 -32l-25 -25q-12 -14 -24 -25q-18 -16 -43 -16t-41 16t-17 41q0 25 17 43l182 180q24 28 63 14z" />
<glyph unicode="&#xba;" horiz-adv-x="624" d="M313 1305q41 0 78 -16.5t64.5 -44t44 -64.5t16.5 -78v-287q0 -43 -16.5 -80t-44 -64.5t-64.5 -43t-78 -15.5q-86 0 -144 58.5t-58 144.5v287q0 41 15 78t43 64.5t64.5 44t79.5 16.5zM313 731q35 0 59.5 24.5t24.5 59.5v287q0 35 -24.5 59.5t-59.5 24.5t-59.5 -24.5 t-24.5 -59.5v-287q0 -35 24.5 -59.5t59.5 -24.5z" />
<glyph unicode="&#xbb;" horiz-adv-x="858" d="M489 344q0 10 9 31q29 49 51 92l41 75l31 56q-10 16 -30 51l-38 70q-23 39 -47 86q-8 16 -8 31q0 39 34 57q23 14 49.5 6t39.5 -33l131 -237q18 -33 0 -64l-140 -252q-12 -25 -38.5 -33t-49.5 7q-35 18 -35 57zM121 344q0 10 8 31q29 49 51 92l41 75l31 56q-10 16 -30 51 l-38 70q-23 39 -47 86q-8 16 -8 31q0 39 35 57q23 14 49.5 6t38.5 -33l131 -237q18 -33 0 -64l-139 -252q-12 -25 -39 -33t-49 7q-35 18 -35 57z" />
<glyph unicode="&#xbc;" horiz-adv-x="1224" d="M236 1104l-31 -32l-25 -25q-12 -14 -24 -25q-18 -16 -43 -16t-41 16t-17 41q0 25 17 43l182 180q25 29 63 14q37 -16 37 -55v-614q0 -25 -17.5 -42.5t-41.5 -17.5q-25 0 -42 17.5t-17 42.5v473zM1098 281q25 0 42 -17.5t17 -42.5t-17.5 -42t-41.5 -17h-47v-105 q0 -25 -17.5 -42t-42.5 -17t-42 17.5t-17 41.5v105h-205q-33 0 -49 26q-18 27 -6 56l182 450q10 23 32.5 33t45.5 0q37 -16 37 -55q0 -6 -1 -11.5t-3 -11.5l-60 -143l-50 -122l-42 -103h119v63q0 25 17.5 42t41.5 17q25 0 42.5 -17t17.5 -42v-63h47zM897 1305q25 -12 33 -38 t-2 -50l-574 -1188q-12 -25 -37.5 -34t-50.5 3t-34 37.5t4 50.5l573 1188q12 25 37.5 33t50.5 -2z" />
<glyph unicode="&#xbd;" horiz-adv-x="1220" d="M236 1104l-31 -32l-25 -25q-12 -14 -24 -25q-18 -16 -43 -16t-41 16t-17 41q0 25 17 43l182 180q25 29 63 14q37 -16 37 -55v-614q0 -25 -17.5 -42.5t-41.5 -17.5q-25 0 -42 17.5t-17 42.5v473zM1120 420l-67 -109l-62 -97l-57 -89h160q25 0 42 -17.5t17 -41.5 q0 -25 -17.5 -42.5t-41.5 -17.5h-269q-35 0 -51 31q-8 14 -8 31q0 16 10 28l246 387q20 29 10 64q-6 33 -39 53q-29 20 -63 10q-33 -8 -53 -39q-12 -23 -35 -28.5t-45 6.5q-23 12 -29 35.5t6 44.5q43 74 125 96q84 18 156 -25q74 -41 92 -127q18 -83 -27 -153zM897 1305 q25 -12 33 -38t-2 -50l-574 -1188q-12 -25 -37.5 -34t-50.5 3t-34 37.5t4 50.5l573 1188q12 25 37.5 33t50.5 -2z" />
<glyph unicode="&#xbe;" horiz-adv-x="1286" d="M457 774q0 -70 -42 -124t-108 -70q-68 -18 -131 8t-98 86q-12 20 -6 43.5t28 36.5q23 12 45.5 6t34.5 -29q16 -25 42 -36t54 -3q29 8 45.5 30.5t16.5 51.5v41q0 35 -24.5 59.5t-59.5 24.5q-25 0 -42 17.5t-17 41.5q0 25 17 42.5t42 17.5q47 0 74 41q23 43 0 86 q-27 41 -74 41t-74 -41q-12 -23 -34.5 -29t-45.5 6t-28.5 36t6.5 44q29 47 76 75t100 28t100 -28t74 -75q29 -47 29 -100t-29 -101q-12 -25 -31 -43q29 -29 44.5 -65.5t15.5 -77.5v-41zM1159 281q25 0 42.5 -17.5t17.5 -42.5t-17.5 -42t-42.5 -17h-47v-105q0 -25 -17.5 -42 t-41.5 -17q-25 0 -42.5 17.5t-17.5 41.5v105h-205q-33 0 -49 26q-18 27 -6 56l182 450q10 23 33 33t45 0q37 -16 37 -55q0 -6 -1 -11.5t-3 -11.5l-59 -143l-51 -122l-42 -103h119v63q0 25 17.5 42t42.5 17t42 -17t17 -42v-63h47zM958 1305q25 -12 33 -38t-2 -50l-573 -1188 q-12 -25 -38 -34t-50 3q-25 12 -34 37.5t3 50.5l573 1188q12 25 37.5 33t50.5 -2z" />
<glyph unicode="&#xbf;" horiz-adv-x="731" d="M307 856q0 35 25.5 60.5t60.5 25.5t60.5 -25.5t25.5 -60.5t-25.5 -60.5t-60.5 -25.5t-60.5 25.5t-25.5 60.5zM205 -313q-53 41 -85 100t-36 125q-4 68 18.5 131t69.5 111l104 104q51 55 52 127v164q0 29 19.5 47t45.5 18q29 0 47.5 -18t18.5 -47v-164q0 -61 -22.5 -117.5 t-67.5 -101.5l-103 -105q-57 -57 -51 -139q4 -82 70 -131t145 -33q37 8 68.5 30t52.5 56q12 23 38.5 30t49.5 -5q25 -14 32 -41t-7 -49q-35 -59 -89.5 -98t-119.5 -52q-66 -14 -131.5 1.5t-118.5 56.5z" />
<glyph unicode="&#xc0;" horiz-adv-x="884" d="M291 1739q18 20 44.5 22t47.5 -16l205 -184q20 -18 22 -45t-16 -48q-18 -23 -45 -23.5t-47 17.5l-205 185q-23 18 -23.5 45t17.5 47zM834 74q8 -27 -5.5 -49.5t-42.5 -30.5q-27 -8 -49 5t-30 40l-19 67q-10 33 -21 76l-26 97h-397q-16 -53 -26.5 -96.5t-20.5 -76.5 l-19 -67q-8 -27 -30.5 -40t-51.5 -5q-27 8 -40 30.5t-5 49.5l328 1188q6 23 23.5 36t39.5 13q23 0 40.5 -13.5t23.5 -35.5zM604 410l-43 156l-44 159l-41 148l-34 126q-16 -55 -34 -126l-40 -148l-44 -159l-43 -156h323z" />
<glyph unicode="&#xc1;" horiz-adv-x="884" d="M502 1745q20 18 46.5 16t45.5 -22q18 -20 17 -47t-23 -45l-205 -185q-20 -18 -47 -17t-45 23q-18 20 -17.5 47t23.5 46zM834 74q8 -27 -5.5 -49.5t-42.5 -30.5q-27 -8 -49 5t-30 40l-19 67q-10 33 -21 76l-26 97h-397q-16 -53 -26.5 -96.5t-20.5 -76.5l-19 -67 q-8 -27 -30.5 -40t-51.5 -5q-27 8 -40 30.5t-5 49.5l328 1188q6 23 23.5 36t39.5 13q23 0 40.5 -13.5t23.5 -35.5zM604 410l-43 156l-44 159l-41 148l-34 126q-16 -55 -34 -126l-40 -148l-44 -159l-43 -156h323z" />
<glyph unicode="&#xc2;" horiz-adv-x="884" d="M403 1704q16 14 39 14t39 -14l185 -143q20 -16 23 -41t-13 -47q-16 -20 -41 -23.5t-47 12.5q-29 20 -56 43l-47 36l-43 34l-43 -34l-47 -36q-27 -23 -55 -43q-20 -16 -46 -13t-42 24q-16 23 -13 47t23 41zM834 74q8 -27 -5.5 -49.5t-42.5 -30.5q-27 -8 -49 5t-30 40 l-19 67q-10 33 -21 76l-26 97h-397q-16 -53 -26.5 -96.5t-20.5 -76.5l-19 -67q-8 -27 -30.5 -40t-51.5 -5q-27 8 -40 30.5t-5 49.5l328 1188q6 23 23.5 36t39.5 13q23 0 40.5 -13.5t23.5 -35.5zM604 410l-43 156l-44 159l-41 148l-34 126q-16 -55 -34 -126l-40 -148 l-44 -159l-43 -156h323z" />
<glyph unicode="&#xc3;" horiz-adv-x="884" d="M311 1534q-16 -23 -40.5 -28t-47.5 12q-23 14 -26.5 38.5t10.5 47.5q45 68 123 79q37 6 74.5 -3t68.5 -31l16 -13q20 -16 46 -10q25 2 40 27q14 23 39 28t48 -12q23 -14 27.5 -38.5t-9.5 -47.5q-45 -68 -123 -80q-80 -12 -143 35l-17 12q-23 12 -47 11q-25 -4 -39 -27z M834 74q8 -27 -5.5 -49.5t-42.5 -30.5q-27 -8 -49 5t-30 40l-19 67q-10 33 -21 76l-26 97h-397q-16 -53 -26.5 -96.5t-20.5 -76.5l-19 -67q-8 -27 -30.5 -40t-51.5 -5q-27 8 -40 30.5t-5 49.5l328 1188q6 23 23.5 36t39.5 13q23 0 40.5 -13.5t23.5 -35.5zM604 410l-43 156 l-44 159l-41 148l-34 126q-16 -55 -34 -126l-40 -148l-44 -159l-43 -156h323z" />
<glyph unicode="&#xc4;" horiz-adv-x="884" d="M606 1507q-35 0 -60.5 26t-25.5 60q0 35 25.5 60.5t60.5 25.5t60.5 -25.5t25.5 -60.5t-25.5 -60.5t-60.5 -25.5zM279 1679q35 0 60.5 -25.5t25.5 -60.5t-26 -60.5t-60 -25.5q-35 0 -60.5 26t-25.5 60q0 35 25.5 60.5t60.5 25.5zM834 74q8 -27 -5.5 -49.5t-42.5 -30.5 q-27 -8 -49 5t-30 40l-19 67q-10 33 -21 76l-26 97h-397q-16 -53 -26.5 -96.5t-20.5 -76.5l-19 -67q-8 -27 -30.5 -40t-51.5 -5q-27 8 -40 30.5t-5 49.5l328 1188q6 23 23.5 36t39.5 13q23 0 40.5 -13.5t23.5 -35.5zM604 410l-43 156l-44 159l-41 148l-34 126 q-16 -55 -34 -126l-40 -148l-44 -159l-43 -156h323z" />
<glyph unicode="&#xc5;" horiz-adv-x="884" d="M618 1614q0 -37 -13 -69t-37.5 -55.5t-56.5 -37.5t-69 -14t-68.5 14t-55 37.5t-37 55.5t-13.5 69q0 72 51.5 123t122.5 51q74 0 125 -51t51 -123zM373 1614q0 -29 20.5 -50.5t48.5 -21.5q29 0 50.5 21.5t21.5 50.5t-21.5 49t-50.5 20t-49 -20t-20 -49zM834 74 q8 -27 -5.5 -49.5t-42.5 -30.5q-27 -8 -49 5t-30 40l-19 67q-10 33 -21 76l-26 97h-397q-16 -53 -26.5 -96.5t-20.5 -76.5l-19 -67q-8 -27 -30.5 -40t-51.5 -5q-27 8 -40 30.5t-5 49.5l328 1188q6 23 23.5 36t39.5 13q23 0 40.5 -13.5t23.5 -35.5zM604 410l-43 156l-44 159 l-41 148l-34 126q-16 -55 -34 -126l-40 -148l-44 -159l-43 -156h323z" />
<glyph unicode="&#xc6;" horiz-adv-x="1263" d="M778 1171v-434h303q29 0 47.5 -18.5t18.5 -46.5q0 -29 -18.5 -47.5t-47.5 -18.5h-303v-475h344q29 0 47.5 -18.5t18.5 -46.5q0 -29 -18.5 -47.5t-47.5 -18.5h-409q-27 0 -46.5 18.5t-19.5 47.5v213h-377l-45 -101l-35 -78q-18 -37 -30 -69q-12 -25 -38 -34t-50 1 q-25 10 -34 35.5t1 50.5l528 1180q16 39 62 39h493q29 0 47.5 -18.5t18.5 -47.5t-18.5 -47.5t-47.5 -18.5h-344zM647 410v712l-56 -127l-79 -177l-91 -204l-91 -204h317z" />
<glyph unicode="&#xc7;" horiz-adv-x="806" d="M344 2q-102 29 -165.5 112t-63.5 189v696q0 106 63.5 189.5t165.5 111.5q51 14 102.5 10.5t97.5 -23t85 -53.5t65 -79l21 -35q14 -25 7 -50.5t-32 -39.5q-23 -14 -48.5 -7t-39.5 32l-20 35q-31 53 -87.5 76.5t-115.5 7.5t-96 -64.5t-37 -110.5v-696q0 -61 36.5 -109.5 t96.5 -64.5q59 -16 115.5 7.5t87.5 76.5l20 35q14 25 40 32t48 -8q25 -14 32 -39.5t-7 -50.5l-21 -35q-35 -59 -88 -97t-114 -52v-70q0 -61 -32 -114.5t-85 -83.5q-23 -14 -48.5 -7t-39.5 29q-14 25 -7 50.5t31 39.5q23 14 36 37t13 49v70q-4 2 -8 2t-8 2z" />
<glyph unicode="&#xc8;" horiz-adv-x="753" d="M680 66q0 -29 -19.5 -47.5t-46.5 -18.5h-409q-29 0 -47.5 18.5t-18.5 47.5v1171q0 29 18.5 47.5t47.5 18.5h409q27 0 46.5 -18.5t19.5 -47.5t-19.5 -47.5t-46.5 -18.5h-344v-434h303q27 0 46.5 -18.5t19.5 -46.5q0 -29 -19.5 -47.5t-46.5 -18.5h-303v-475h344 q27 0 46.5 -18t19.5 -47zM262 1647q-20 18 -21 44.5t17 47.5q18 20 45 22t47 -16l205 -184q20 -18 21.5 -45t-17.5 -48q-16 -23 -44 -23.5t-48 17.5z" />
<glyph unicode="&#xc9;" horiz-adv-x="753" d="M270 1171v-434h303q27 0 46.5 -18.5t19.5 -46.5q0 -29 -19.5 -47.5t-46.5 -18.5h-303v-475h344q27 0 46.5 -18.5t19.5 -46.5q0 -29 -19.5 -47.5t-46.5 -18.5h-409q-29 0 -47.5 18.5t-18.5 47.5v1171q0 29 18.5 47.5t47.5 18.5h409q27 0 46.5 -18.5t19.5 -47.5 t-19.5 -47.5t-46.5 -18.5h-344zM467 1745q20 18 48 16t44 -22q18 -20 17 -47t-21 -45l-205 -185q-20 -18 -47 -17t-45 23q-18 20 -17 47t21 46z" />
<glyph unicode="&#xca;" horiz-adv-x="753" d="M680 66q0 -29 -19.5 -47.5t-46.5 -18.5h-409q-29 0 -47.5 18.5t-18.5 47.5v1171q0 29 18.5 47.5t47.5 18.5h409q27 0 46.5 -18.5t19.5 -47.5t-19.5 -47.5t-46.5 -18.5h-344v-434h303q27 0 46.5 -18.5t19.5 -46.5q0 -29 -19.5 -47.5t-46.5 -18.5h-303v-475h344 q27 0 46.5 -18t19.5 -47zM176 1473q-16 23 -13 47t23 41l185 143q16 14 37 14q23 0 38 -14l185 -143q23 -16 25.5 -41t-13.5 -47q-16 -20 -42 -23.5t-46 12.5q-29 20 -55 43l-48 36q-26 19 -42 34l-44 -34l-49 -36q-27 -23 -55 -43q-20 -16 -45 -12.5t-41 23.5z" />
<glyph unicode="&#xcb;" horiz-adv-x="753" d="M270 1171v-434h303q29 0 47.5 -18.5t18.5 -46.5q0 -29 -18.5 -47.5t-47.5 -18.5h-303v-475h344q29 0 47.5 -18.5t18.5 -46.5q0 -29 -18.5 -47.5t-47.5 -18.5h-409q-29 0 -47.5 18.5t-18.5 47.5v1171q0 29 18.5 47.5t47.5 18.5h409q29 0 47.5 -18.5t18.5 -47.5 t-18.5 -47.5t-47.5 -18.5h-344zM487 1593q0 35 26 60.5t60 25.5q35 0 60.5 -25.5t25.5 -60.5t-25.5 -60.5t-60.5 -25.5t-60.5 25.5t-25.5 60.5zM160 1593q0 35 25.5 60.5t60.5 25.5t60.5 -25.5t25.5 -60.5t-25.5 -60.5t-60.5 -25.5t-60.5 25.5t-25.5 60.5z" />
<glyph unicode="&#xcc;" horiz-adv-x="409" d="M350 1561q20 -18 22.5 -45t-16.5 -48q-18 -23 -44.5 -23.5t-47.5 17.5l-205 185q-23 18 -23.5 44.5t17.5 47.5q18 20 45 22t47 -16zM270 57q0 -29 -18.5 -47t-46.5 -18q-29 0 -47.5 18.5t-18.5 46.5v1188q0 29 18.5 47.5t47.5 18.5t47 -18.5t18 -47.5v-1188z" />
<glyph unicode="&#xcd;" horiz-adv-x="409" d="M139 1245q0 29 18.5 47.5t47.5 18.5t47 -18.5t18 -47.5v-1188q0 -29 -18.5 -47t-46.5 -18q-29 0 -47.5 18.5t-18.5 46.5v1188zM53 1468q-18 20 -17 47t23 46l205 184q20 18 47 16t45 -22t16.5 -47t-22.5 -45l-205 -185q-20 -18 -47 -17.5t-45 23.5z" />
<glyph unicode="&#xce;" horiz-adv-x="409" d="M438 1473q-16 -20 -40.5 -23.5t-47.5 12.5q-29 20 -55 43l-48 36q-26 19 -42 34l-44 -34l-48 -36l-54 -43q-23 -16 -47 -13t-41 24q-16 23 -13 47t24 41l184 143q16 14 39 14t39 -14l184 -143q20 -16 23 -40.5t-13 -47.5zM139 1245q0 29 18.5 47.5t47.5 18.5t47 -18.5 t18 -47.5v-1188q0 -29 -18.5 -47t-46.5 -18q-29 0 -47.5 18.5t-18.5 46.5v1188z" />
<glyph unicode="&#xcf;" horiz-adv-x="409" d="M455 1593q0 -35 -26 -60.5t-60 -25.5q-35 0 -60.5 26t-25.5 60q0 35 25.5 60.5t60.5 25.5t60.5 -25.5t25.5 -60.5zM41 1507q-35 0 -60.5 26t-25.5 60q0 35 25.5 60.5t60.5 25.5t60.5 -25.5t25.5 -60.5t-25.5 -60.5t-60.5 -25.5zM205 -8q-29 0 -47.5 18.5t-18.5 46.5v1188 q0 29 18.5 47.5t47.5 18.5t47 -18.5t18 -47.5v-1188q0 -29 -18 -47t-47 -18z" />
<glyph unicode="&#xd0;" horiz-adv-x="903" d="M166 1237q0 29 19.5 47.5t45.5 18.5h246q63 0 120.5 -25t99.5 -67t66.5 -99t24.5 -121v-680q0 -66 -24.5 -122t-66.5 -98t-99 -66.5t-121 -24.5h-246q-27 0 -46 18.5t-19 47.5v542h-98q-25 0 -43.5 18.5t-18.5 45.5t18.5 44t43.5 17h98v504zM657 991q0 74 -52 127 t-128 53h-180v-438h139q27 0 45.5 -17.5t18.5 -43.5q0 -27 -18.5 -45.5t-45.5 -18.5h-139v-477h180q76 0 128 52.5t52 127.5v680z" />
<glyph unicode="&#xd1;" horiz-adv-x="983" d="M190 1309q23 4 43.5 -5.5t30.5 -29.5l168 -346l72 -150l74 -154l71 -149l64 -131v901q0 29 19.5 47.5t45.5 18.5q29 0 47.5 -18.5t18.5 -47.5v-1188q0 -23 -14.5 -41t-36.5 -22q-23 -6 -43.5 4t-30.5 31l-166 346l-73 149l-74 155l-72 148l-64 131v-901q0 -29 -18.5 -47 t-46.5 -18q-27 0 -46.5 18.5t-19.5 46.5v1188q0 23 14 41.5t37 22.5zM272 1518q-23 14 -27.5 38.5t11.5 47.5q41 68 123 79q37 6 75 -3t66 -31l17 -13q23 -16 47 -10q25 2 41 27q14 23 38.5 28t47.5 -12q23 -14 27.5 -38.5t-9.5 -47.5q-45 -68 -123 -80q-80 -12 -143 35 l-17 12q-23 12 -47 11q-25 -4 -39 -27q-16 -23 -40.5 -27.5t-47.5 11.5z" />
<glyph unicode="&#xd2;" d="M737 303q0 -66 -24.5 -122t-66.5 -98t-99.5 -66.5t-120.5 -24.5q-66 0 -122 24.5t-98 66.5t-66.5 98.5t-24.5 121.5v696q0 63 24.5 121t66.5 100t98 66.5t122 24.5q63 0 120.5 -24.5t99.5 -66.5t66.5 -99.5t24.5 -121.5v-696zM426 123q76 0 128 52t52 128v696 q0 74 -52 127.5t-128 53.5q-37 0 -69.5 -14.5t-57.5 -39t-39 -57.5t-14 -70v-696q0 -76 53 -128t127 -52zM274 1739q18 20 46 22t49 -16l204 -184q20 -18 21.5 -45t-16.5 -48q-18 -23 -45 -23.5t-48 17.5l-204 185q-20 18 -21.5 45t14.5 47z" />
<glyph unicode="&#xd3;" d="M737 303q0 -66 -24.5 -122t-66.5 -98t-99.5 -66.5t-120.5 -24.5t-119.5 24.5t-99.5 66.5t-67.5 98.5t-24.5 121.5v696q0 63 24.5 121t67.5 100t99 66.5t120 24.5q63 0 120.5 -24.5t99.5 -66.5t66.5 -99.5t24.5 -121.5v-696zM246 303q0 -76 53 -128t127 -52q76 0 128 52 t52 128v696q0 74 -52 127.5t-128 53.5q-37 0 -69.5 -14.5t-57.5 -39t-39 -57.5t-14 -70v-696zM276 1468q-18 20 -17 47t22 46l204 184q20 18 47 16t46 -22q18 -20 17 -47t-22 -45l-204 -185q-20 -18 -48.5 -17.5t-44.5 23.5z" />
<glyph unicode="&#xd4;" d="M737 303q0 -66 -24.5 -122t-66.5 -98t-99.5 -66.5t-120.5 -24.5t-119.5 24.5t-99.5 66.5t-67.5 98.5t-24.5 121.5v696q0 63 24.5 121t67.5 100t99 66.5t120 24.5q63 0 120.5 -24.5t99.5 -66.5t66.5 -99.5t24.5 -121.5v-696zM246 303q0 -76 53 -128t127 -52q76 0 128 52 t52 128v696q0 74 -52 127.5t-128 53.5q-37 0 -69.5 -14.5t-57.5 -39t-39 -57.5t-14 -70v-696zM281 1462q-20 -16 -46 -13t-42 24q-16 23 -13.5 47t25.5 41l184 143q16 14 37 14q23 0 39 -14l184 -143q23 -16 26 -41t-13 -47q-16 -20 -42 -23.5t-47 12.5q-29 20 -55 43 l-48 36l-44 34l-43 -34l-47 -36q-26 -23 -55 -43z" />
<glyph unicode="&#xd5;" d="M737 303q0 -66 -24.5 -122t-67.5 -98t-99.5 -66.5t-119.5 -24.5q-66 0 -122 24.5t-98 66.5t-66.5 98.5t-24.5 121.5v696q0 63 24.5 121t66.5 100t98 66.5t122 24.5q63 0 119.5 -24.5t99.5 -66.5t67.5 -99.5t24.5 -121.5v-696zM426 123q74 0 127 52t53 128v696 q0 37 -14 70t-39 57.5t-57.5 39t-69.5 14.5q-76 0 -128 -53.5t-52 -127.5v-696q0 -76 52 -128t128 -52zM188 1604q45 68 123 79q80 12 144 -34l16 -13q23 -16 47 -10q25 4 39 27q16 23 41 28t47 -12q23 -14 27 -38.5t-10 -47.5q-45 -68 -123 -80q-37 -6 -75 3.5t-69 31.5 l-16 12q-20 14 -45 11q-25 -2 -41 -27q-14 -23 -39 -28t-47 12q-23 14 -28 38.5t9 47.5z" />
<glyph unicode="&#xd6;" d="M737 303q0 -66 -24.5 -122t-67.5 -98t-99.5 -66.5t-119.5 -24.5q-66 0 -122 24.5t-98 66.5t-66.5 98.5t-24.5 121.5v696q0 63 24.5 121t66.5 100t98 66.5t122 24.5q63 0 119.5 -24.5t99.5 -66.5t67.5 -99.5t24.5 -121.5v-696zM426 123q74 0 127 52t53 128v696 q0 37 -14 70t-39 57.5t-57.5 39t-69.5 14.5q-76 0 -128 -53.5t-52 -127.5v-696q0 -76 52 -128t128 -52zM676 1593q0 -35 -25.5 -60.5t-60.5 -25.5q-37 0 -61.5 26t-24.5 60q0 35 24.5 60.5t61.5 25.5q35 0 60.5 -25.5t25.5 -60.5zM348 1593q0 -35 -25.5 -60.5t-60.5 -25.5 q-37 0 -61.5 26t-24.5 60q0 35 24.5 60.5t61.5 25.5q35 0 60.5 -25.5t25.5 -60.5z" />
<glyph unicode="&#xd7;" d="M678 842q18 -20 18 -47t-18 -47l-160 -158l160 -158q18 -20 18 -47t-18 -47q-20 -18 -47 -19q-27 0 -47 19l-158 160l-158 -160q-20 -18 -47 -19q-27 0 -47 19q-18 20 -18 47t18 47l160 158l-160 158q-18 20 -18 47t18 47q20 18 47 18t47 -18l158 -160l158 160 q20 18 47 18t47 -18z" />
<glyph unicode="&#xd8;" horiz-adv-x="872" d="M834 1382q23 -12 30.5 -37.5t-4.5 -48.5l-123 -221q10 -41 11 -76v-696q0 -66 -25 -122t-67 -98t-99 -66.5t-121 -24.5q-70 0 -130 28.5t-101 75.5l-82 -151q-14 -23 -39 -30t-47 5q-23 12 -30 38t5 48l121 221q-8 33 -8 76v696q0 63 24.5 121t66.5 100t98.5 66.5 t121.5 24.5q70 0 129.5 -29t102.5 -76l82 152q12 23 36.5 29.5t47.5 -5.5zM436 1180q-76 0 -128 -53.5t-52 -127.5v-548l342 628q-23 45 -66 73t-96 28zM436 123q74 0 127 52t53 128v549l-342 -629q23 -45 66 -72.5t96 -27.5z" />
<glyph unicode="&#xd9;" horiz-adv-x="868" d="M434 -8q-66 0 -122 24.5t-98 66.5t-66.5 98.5t-24.5 121.5v942q0 29 18.5 47.5t46.5 18.5q29 0 47.5 -18.5t18.5 -47.5v-942q0 -76 52 -128t128 -52q74 0 127 52t53 128v942q0 29 18.5 47.5t47.5 18.5t47 -18.5t18 -47.5v-942q0 -66 -24.5 -122t-66.5 -98t-99.5 -66.5 t-120.5 -24.5zM580 1561q20 -18 21 -45t-15 -48q-18 -23 -45 -23.5t-49 17.5l-205 185q-20 18 -21.5 44.5t17.5 47.5q18 20 44.5 22t47.5 -16z" />
<glyph unicode="&#xda;" horiz-adv-x="868" d="M745 303q0 -66 -24.5 -122t-66.5 -98t-99 -66.5t-121 -24.5q-66 0 -122 24.5t-98 66.5t-66.5 98.5t-24.5 121.5v942q0 29 18.5 47.5t46.5 18.5q29 0 47.5 -18.5t18.5 -47.5v-942q0 -76 52 -128t128 -52q74 0 127 52t53 128v942q0 29 18.5 47.5t47.5 18.5t47 -18.5 t18 -47.5v-942zM375 1462q-20 -18 -47 -17t-45 23q-18 20 -17.5 47t23.5 46l205 184q20 18 46.5 16t45.5 -22q18 -20 16 -47t-22 -45z" />
<glyph unicode="&#xdb;" horiz-adv-x="868" d="M123 1245q0 29 19.5 47.5t45.5 18.5q29 0 47.5 -18.5t18.5 -47.5v-942q0 -76 53 -128t127 -52q76 0 128 52t52 128v942q0 29 19.5 47.5t46.5 18.5q29 0 47 -18.5t18 -47.5v-942q0 -66 -24.5 -122t-66.5 -98t-99 -66.5t-121 -24.5q-63 0 -119.5 24.5t-99.5 66.5 t-67.5 98.5t-24.5 121.5v942zM657 1561q20 -16 23.5 -41t-12.5 -47q-16 -20 -41 -23.5t-45 12.5q-29 20 -56 43l-48 36l-44 34l-43 -34l-47 -36q-27 -23 -55 -43q-20 -16 -46 -13t-42 24q-16 23 -13.5 47t25.5 41l184 143q16 14 37 14q23 0 39 -14z" />
<glyph unicode="&#xdc;" horiz-adv-x="868" d="M434 -8q-63 0 -119.5 24.5t-99.5 66.5t-67.5 98.5t-24.5 121.5v942q0 29 19.5 47.5t45.5 18.5q29 0 47.5 -18.5t18.5 -47.5v-942q0 -76 53 -128t127 -52q76 0 128 52t52 128v942q0 29 19.5 47.5t46.5 18.5q29 0 47 -18.5t18 -47.5v-942q0 -66 -24.5 -122t-66.5 -98 t-99.5 -66.5t-120.5 -24.5zM512 1593q0 35 25.5 60.5t60.5 25.5q37 0 61.5 -25.5t24.5 -60.5t-24.5 -60.5t-61.5 -25.5q-35 0 -60.5 25.5t-25.5 60.5zM270 1507q-35 0 -60.5 26t-25.5 60q0 35 26 60.5t60 25.5q37 0 61.5 -25.5t24.5 -60.5t-24.5 -60.5t-61.5 -25.5z" />
<glyph unicode="&#xdd;" horiz-adv-x="823" d="M412 819l66 133l75 150l88 172q12 25 38 33t50 -2q23 -12 32 -39t-3 -49l-281 -562v-598q0 -29 -18.5 -47t-46.5 -18q-27 0 -46.5 18.5t-19.5 46.5v598l-278 562q-12 23 -4 49t32 39q25 10 50.5 1.5t37.5 -32.5zM354 1462q-23 -18 -49 -17t-45 23q-16 20 -15 47t21 46 l205 184q20 18 47 16t45 -22t17.5 -47t-21.5 -45z" />
<glyph unicode="&#xde;" horiz-adv-x="819" d="M451 1044q63 0 119.5 -24.5t99.5 -66.5t67.5 -99t24.5 -121v-123q0 -66 -24.5 -122t-67.5 -98t-99.5 -66.5t-119.5 -24.5h-181v-242q0 -29 -19.5 -47t-45.5 -18q-29 0 -47.5 18.5t-18.5 46.5v1180q0 29 18.5 47.5t47.5 18.5q27 0 46 -18.5t19 -47.5v-193h181zM451 430 q74 0 127 52.5t53 127.5v123q0 37 -14.5 70t-39 57.5t-57.5 38.5t-69 14h-181v-483h181z" />
<glyph unicode="&#xdf;" horiz-adv-x="876" d="M758 303q0 -63 -24.5 -119.5t-65.5 -97.5t-97.5 -65.5t-119.5 -24.5q-27 0 -44.5 17.5t-17.5 43.5q0 27 17.5 44.5t44.5 17.5q78 0 131 53t53 131v328q0 78 -53.5 131t-130.5 53q-23 0 -40.5 13.5t-21.5 35.5q-4 23 6.5 41.5t30.5 28.5l39 14q37 16 60.5 47t27.5 72 t-13.5 76t-50.5 57q-35 23 -73.5 25t-73.5 -17q-35 -20 -55.5 -53t-20.5 -74v-1024q0 -27 -18.5 -44t-42.5 -17q-27 0 -44.5 17.5t-17.5 43.5v1024q0 74 38 137.5t104 98.5t138.5 30.5t133.5 -44.5q55 -37 87 -96.5t32 -125.5q0 -16 -2 -26q-10 -92 -72 -158 q70 -41 113 -110.5t43 -155.5v-328z" />
<glyph unicode="&#xe0;" horiz-adv-x="720" d="M328 4q-55 0 -103.5 20.5t-85.5 57.5t-57.5 85t-20.5 103t20.5 103.5t57.5 85.5t85 57.5t104 20.5h143v139q0 43 -23.5 77.5t-62.5 51.5q-41 16 -82 8t-70 -39q-18 -18 -45 -18q-25 0 -43 18t-18 43q0 27 18 43q57 57 135 72.5t152 -14.5q74 -31 118 -96.5t44 -145.5 v-610q0 -27 -18.5 -44.5t-43.5 -17.5h-204zM328 414q-59 0 -101.5 -42t-42.5 -102q0 -59 42 -101t102 -42h143v287h-143zM512 1147q18 -16 19 -42t-15 -44t-41.5 -19.5t-44.5 15.5l-205 184q-20 16 -21 42t15 44t42 19.5t46 -15.5z" />
<glyph unicode="&#xe1;" horiz-adv-x="720" d="M594 66q0 -27 -18.5 -44.5t-43.5 -17.5h-204q-55 0 -103.5 20.5t-85.5 57.5t-57.5 85t-20.5 103t20.5 103.5t57.5 85.5t85 57.5t104 20.5h143v139q0 43 -23.5 77.5t-62.5 51.5q-41 16 -82 8t-70 -39q-18 -18 -45 -18q-25 0 -43 18q-16 18 -16 43q0 27 16 43 q57 57 135 72.5t152 -14.5q74 -31 118 -96.5t44 -145.5v-610zM184 270q0 -59 42 -101t102 -42h143v287h-143q-59 0 -101.5 -42.5t-42.5 -101.5zM307 1057q-20 -16 -44.5 -15.5t-43.5 19.5q-16 18 -15 43.5t21 42.5l205 184q18 16 44 15.5t42 -19.5q16 -18 15 -44t-19 -42z " />
<glyph unicode="&#xe2;" horiz-adv-x="720" d="M471 537v139q0 43 -23.5 77.5t-62.5 51.5q-41 16 -82 8t-70 -39q-18 -18 -45 -18q-25 0 -43 18q-16 18 -16 43q0 27 16 43q57 57 135 72.5t152 -14.5q74 -31 118 -96.5t44 -145.5v-610q0 -27 -18.5 -44.5t-43.5 -17.5h-204q-55 0 -103.5 20.5t-85.5 57.5t-57.5 85 t-20.5 103t20.5 103.5t57.5 85.5t85 57.5t104 20.5h143zM184 270q0 -59 42 -101t102 -42h143v287h-143q-59 0 -101.5 -42.5t-42.5 -101.5zM332 1290q37 27 71 0l185 -143q20 -14 23 -38t-13 -44q-14 -18 -37.5 -21.5t-44.5 11.5l-55 45l-49.5 37.5t-42.5 33.5l-44 -33 l-49 -38q-27 -23 -57 -45q-18 -14 -41.5 -11t-40.5 21q-14 20 -11 44t21 38z" />
<glyph unicode="&#xe3;" horiz-adv-x="720" d="M328 4q-55 0 -103.5 20.5t-85.5 57.5t-57.5 85t-20.5 103t20.5 103.5t57.5 85.5t85 57.5t104 20.5h143v139q0 43 -23.5 77.5t-62.5 51.5q-41 16 -82 8t-70 -39q-18 -18 -45 -18q-25 0 -43 18q-16 18 -16 43q0 27 16 43q57 57 135 72.5t152 -14.5q74 -31 118 -96.5 t44 -145.5v-610q0 -27 -17.5 -44.5t-44.5 -17.5h-204zM328 414q-59 0 -101.5 -42t-42.5 -102q0 -59 42 -101t102 -42h143v287h-143zM586 1257q20 -14 24 -37.5t-8 -43.5q-45 -66 -121 -78q-78 -12 -139 32l-16 13q-23 16 -50 12q-27 -2 -43 -29q-14 -20 -37.5 -24t-43.5 8 q-20 14 -24.5 37.5t7.5 44.5q45 66 121 78q78 12 139 -33l17 -12q23 -18 49 -13q27 2 43 29q14 20 38 24t44 -8z" />
<glyph unicode="&#xe4;" horiz-adv-x="720" d="M471 537v139q0 43 -23.5 77.5t-62.5 51.5q-41 16 -82 8t-70 -39q-18 -18 -45 -18q-25 0 -43 18q-16 18 -16 43q0 27 16 43q57 57 135 72.5t152 -14.5q74 -31 118 -96.5t44 -145.5v-610q0 -27 -18.5 -44.5t-43.5 -17.5h-204q-55 0 -103.5 20.5t-85.5 57.5t-57.5 85 t-20.5 103t20.5 103.5t57.5 85.5t85 57.5t104 20.5h143zM184 270q0 -59 42 -101t102 -42h143v287h-143q-59 0 -101.5 -42.5t-42.5 -101.5zM451 1184q0 35 23.5 58.5t57.5 23.5q35 0 58.5 -23.5t23.5 -58.5t-23.5 -58.5t-58.5 -23.5t-58 23.5t-23 58.5zM205 1102 q-35 0 -58.5 23.5t-23.5 58.5t23.5 58.5t58.5 23.5t58.5 -23.5t23.5 -58.5t-23.5 -58.5t-58.5 -23.5z" />
<glyph unicode="&#xe5;" horiz-adv-x="720" d="M541 1204q0 -72 -50.5 -122t-121.5 -50q-72 0 -122 50.5t-50 121.5q0 72 50 122t122 50t122 -50t50 -122zM295 1204q0 -31 21.5 -52.5t52.5 -21.5t52 22t21 52q0 31 -21.5 52.5t-51.5 21.5q-31 0 -52.5 -21.5t-21.5 -52.5zM471 537v139q0 43 -22.5 77.5t-63.5 51.5 q-39 16 -81 8t-71 -39q-18 -18 -45 -18q-25 0 -41 18q-18 18 -18 43q0 27 18 43q55 57 133 72.5t152 -14.5q74 -31 118 -96.5t44 -145.5v-610q0 -27 -17.5 -44.5t-44.5 -17.5h-204q-55 0 -103.5 20.5t-85.5 57.5t-57.5 85t-20.5 103t20.5 103.5t57.5 85.5t85 57.5t104 20.5 h143zM184 270q0 -59 42 -101t102 -42h143v287h-143q-59 0 -101.5 -42.5t-42.5 -101.5z" />
<glyph unicode="&#xe6;" horiz-adv-x="1107" d="M535 92q-41 -51 -105 -76q-74 -31 -152.5 -15.5t-136.5 73.5q-59 57 -74.5 136t17.5 155q31 74 97.5 118.5t148.5 44.5h143v144q0 43 -23.5 79.5t-64.5 53.5q-41 16 -84 8t-74 -41q-16 -16 -43 -16q-25 0 -43 16q-18 18 -18 43q0 27 18 45q57 57 136 72.5t153 -14.5 q63 -25 105 -76q37 45 90 70.5t114 25.5q55 0 103.5 -20.5t84.5 -57.5t57.5 -85t21.5 -103v-205q0 -27 -18.5 -44t-43.5 -17h-348v-144q0 -43 23.5 -80t64.5 -53t83 -8t73 39q18 18 43 18q27 0 45 -18q16 -16 16 -43q0 -25 -16 -43q-59 -57 -137 -72.5t-154 14.5 q-61 25 -102 76zM596 528h287v144q0 59 -42 101t-102 42q-59 0 -101 -42t-42 -101v-144zM227 160q31 -31 74 -39t84 8t64.5 53t23.5 80v144h-143q-45 0 -81 -24t-52 -65t-8.5 -82.5t38.5 -74.5z" />
<glyph unicode="&#xe7;" horiz-adv-x="677" d="M283 918q76 31 154.5 15.5t135.5 -73.5q18 -18 19 -45q0 -25 -19 -43q-18 -16 -45 -16q-25 0 -41 16q-31 33 -73.5 41t-83.5 -8t-64.5 -53t-23.5 -80v-410q0 -43 23.5 -80t64.5 -53q31 -10 53 -10h2h2q55 0 100 41q16 18 41 18q27 0 45 -18q18 -16 19 -43q0 -25 -19 -43 q-51 -51 -127 -72v-70q0 -59 -29.5 -112t-82.5 -84q-23 -12 -47.5 -6t-36.5 28q-12 23 -6 47.5t28 36.5q25 14 38.5 38t13.5 52v70q-23 6 -41 14q-74 31 -119 97.5t-45 148.5v410q0 82 45 148.5t119 97.5z" />
<glyph unicode="&#xe8;" horiz-adv-x="753" d="M573 74q-57 -57 -136 -72.5t-154 14.5q-74 31 -119 97.5t-45 148.5v410q0 55 21.5 103t57 85t84 57.5t103.5 20.5t103.5 -20.5t85 -57.5t57 -85t20.5 -103v-205q0 -27 -17.5 -44t-43.5 -17h-348v-144q0 -43 23.5 -80t64.5 -53t84 -8t73 39q16 18 41 18q27 0 45 -18 q18 -16 19 -43q-1 -25 -19 -43zM385 815q-59 0 -101 -42t-42 -101v-144h286v144q0 59 -42 101t-101 42zM528 1147q20 -16 21.5 -42t-17.5 -44q-16 -18 -41.5 -19.5t-44.5 15.5l-204 184q-18 16 -19.5 42t15.5 44q16 18 41.5 19.5t44.5 -15.5z" />
<glyph unicode="&#xe9;" horiz-adv-x="753" d="M285 16q-76 31 -121 97.5t-45 148.5v410q0 55 21.5 103t57 85t84 57.5t103.5 20.5t103.5 -20.5t85 -57.5t57 -85t20.5 -103v-205q0 -27 -17.5 -44t-43.5 -17h-348v-144q0 -43 23.5 -80t64.5 -53t84 -8t73 39q16 18 41 18q27 0 45 -18q18 -16 19 -43q0 -25 -19 -43 q-57 -57 -135.5 -73t-152.5 15zM385 815q-59 0 -101 -42t-42 -101v-144h286v144q0 59 -42 101t-101 42zM446 1331q20 16 45 15.5t44 -19.5q16 -18 15 -44t-22 -42l-204 -184q-18 -16 -44 -15.5t-42 19.5q-16 18 -15.5 43.5t19.5 42.5z" />
<glyph unicode="&#xea;" horiz-adv-x="753" d="M285 16q-76 31 -121 97.5t-45 148.5v410q0 55 21.5 103t57 85t84 57.5t103.5 20.5t103.5 -20.5t85 -57.5t57 -85t20.5 -103v-205q0 -27 -17.5 -44t-43.5 -17h-348v-144q0 -43 24.5 -80t65.5 -53t83 -8t72 39q18 18 43 18q27 0 43 -18q18 -16 19 -43q0 -25 -19 -43 q-57 -57 -135.5 -73t-152.5 15zM385 815q-59 0 -101 -42t-42 -101v-144h286v144q0 59 -42 101t-101 42zM238 1055q-20 -14 -44 -11t-38 21q-16 20 -13.5 44t23.5 38l184 143q16 12 35 13q20 0 37 -13l184 -143q18 -14 21.5 -38t-11.5 -44q-16 -18 -39.5 -21.5t-41.5 11.5 q-31 23 -58 45l-49.5 37.5t-42.5 33.5q-16 -14 -42 -33l-48 -38q-26 -22 -57 -45z" />
<glyph unicode="&#xeb;" horiz-adv-x="753" d="M119 672q0 55 21.5 103t57 85t84 57.5t103.5 20.5t103.5 -20.5t85 -57.5t57 -85t20.5 -103v-205q0 -27 -17.5 -44t-43.5 -17h-348v-144q0 -43 24.5 -80t65.5 -53t83 -8t72 39q18 18 43 18q27 0 43 -18q18 -16 19 -43q0 -25 -19 -43q-57 -57 -136 -72.5t-152 14.5 q-76 31 -121 97.5t-45 148.5v410zM385 815q-59 0 -101 -42t-42 -101v-144h286v144q0 59 -42 101t-101 42zM303 1184q0 -35 -23.5 -58.5t-58.5 -23.5t-58.5 23.5t-23.5 58.5t23.5 58.5t58.5 23.5t58.5 -23.5t23.5 -58.5zM549 1102q-35 0 -58.5 23.5t-23.5 58.5t23.5 58.5 t58.5 23.5t58.5 -23.5t23.5 -58.5t-23.5 -58.5t-58.5 -23.5z" />
<glyph unicode="&#xec;" horiz-adv-x="409" d="M313 1061q-16 -18 -41.5 -19.5t-46.5 15.5l-205 184q-18 16 -19 42t15 44t42 19.5t46 -15.5l205 -184q18 -16 19 -42t-15 -44zM143 877q0 27 18.5 44t43.5 17q27 0 44 -17.5t17 -43.5v-820q0 -27 -17.5 -44t-43.5 -17q-25 0 -43.5 17.5t-18.5 43.5v820z" />
<glyph unicode="&#xed;" horiz-adv-x="409" d="M143 877q0 27 17.5 44t44.5 17q25 0 43 -17.5t18 -43.5v-820q0 -27 -18.5 -44t-42.5 -17q-27 0 -44.5 17.5t-17.5 43.5v820zM393 1327q16 -18 15.5 -44t-19.5 -42l-205 -184q-20 -16 -45.5 -15.5t-42.5 19.5q-16 18 -15 43.5t21 42.5l205 184q18 16 44 15t42 -19z" />
<glyph unicode="&#xee;" horiz-adv-x="409" d="M-25 1065q-16 20 -12 44t23 38l184 143q16 12 35 13q20 0 37 -13l184 -143q20 -14 23.5 -38t-13.5 -44q-16 -18 -38.5 -21.5t-43.5 11.5q-31 23 -57 45l-48 38q-26 19 -42 33l-44 -33l-48 -38q-27 -23 -58 -45q-18 -14 -42 -11t-40 21zM268 57q0 -27 -18.5 -44t-42.5 -17 q-27 0 -44.5 17.5t-17.5 43.5v820q0 27 17.5 44t44.5 17q25 0 43 -17.5t18 -43.5v-820z" />
<glyph unicode="&#xef;" horiz-adv-x="409" d="M41 1102q-35 0 -58.5 23.5t-23.5 58.5t23.5 58.5t58.5 23.5t58.5 -23.5t23.5 -58.5t-23.5 -58.5t-58.5 -23.5zM369 1102q-35 0 -58.5 23.5t-23.5 58.5t23.5 58.5t58.5 23.5t58.5 -23.5t23.5 -58.5t-23.5 -58.5t-58.5 -23.5zM143 877q0 27 17.5 44t44.5 17q25 0 43 -17.5 t18 -43.5v-820q0 -27 -18.5 -44t-42.5 -17q-27 0 -44.5 17.5t-17.5 43.5v820z" />
<glyph unicode="&#xf0;" horiz-adv-x="770" d="M651 262q0 -55 -20.5 -103t-57 -85t-85 -57.5t-103.5 -20.5t-103.5 20.5t-85 57.5t-57 85t-20.5 103v410q0 55 20.5 103t57 85t85 57.5t103.5 20.5q53 0 96 -18q-37 92 -98 172l-88 -60q-20 -12 -44 -8t-38 25q-12 20 -8 43.5t24 37.5l72 48q-16 16 -36 29l-40 28 q-20 14 -25 38.5t9 47.5q14 20 38.5 25.5t47.5 -9.5q55 -37 111 -90l69 47q20 12 44 8t38 -24t9 -44t-25 -38l-56 -37q20 -27 38 -54l34 -56q94 -176 94 -377v-410zM385 119q59 0 101 42t42 101v410q0 59 -42 101t-101 42t-101 -42t-42 -101v-410q0 -59 42 -101t101 -42z " />
<glyph unicode="&#xf1;" horiz-adv-x="802" d="M545 1241q14 20 36.5 24.5t45.5 -8.5q20 -14 24 -37.5t-8 -43.5q-45 -66 -121 -78q-78 -12 -139 32l-16 13q-23 16 -52 12t-41 -29q-14 -20 -37.5 -24t-43.5 8q-20 14 -25.5 37.5t8.5 44.5q43 66 121 78q74 12 139 -33l17 -12q20 -18 49 -13q27 2 43 29zM614 -4 q-27 0 -44 17.5t-17 43.5v607q0 59 -42 101t-101 42h-144v-750q0 -27 -18.5 -44t-42.5 -17q-27 0 -44.5 17.5t-17.5 43.5v811q0 27 17.5 44.5t44.5 17.5h205q55 0 103 -20.5t84 -57.5t57.5 -85t21.5 -103v-607q0 -27 -18.5 -44t-43.5 -17z" />
<glyph unicode="&#xf2;" horiz-adv-x="770" d="M242 1241q-20 16 -21.5 42t17.5 44q16 18 41.5 19.5t44.5 -15.5l204 -184q18 -16 19.5 -42t-15.5 -44q-16 -18 -41.5 -19.5t-44.5 15.5zM651 262q0 -55 -20.5 -103t-57 -85t-85 -57.5t-103.5 -20.5t-103.5 20.5t-85 57.5t-57 85t-20.5 103v410q0 55 20.5 103t57 85 t85 57.5t103.5 20.5t103.5 -20.5t85 -57.5t57 -85t20.5 -103v-410zM385 119q59 0 101 42t42 101v410q0 59 -42 101t-101 42t-101 -42t-42 -101v-410q0 -59 42 -101t101 -42z" />
<glyph unicode="&#xf3;" horiz-adv-x="770" d="M238 1061q-16 18 -15.5 43.5t19.5 42.5l204 184q18 16 44 15.5t42 -19.5q16 -18 15.5 -44t-19.5 -42l-204 -184q-18 -16 -44 -15t-42 19zM385 -4q-55 0 -103.5 20.5t-85 57.5t-57 85t-20.5 103v410q0 55 20.5 103t57 85t85 57.5t103.5 20.5t103.5 -20.5t85 -57.5t57 -85 t20.5 -103v-410q0 -55 -20.5 -103t-57 -85t-85 -57.5t-103.5 -20.5zM385 815q-59 0 -101 -42t-42 -101v-410q0 -59 42 -101t101 -42t101 42t42 101v410q0 59 -42 101t-101 42z" />
<glyph unicode="&#xf4;" horiz-adv-x="770" d="M236 1055q-18 -14 -42 -11t-40 21q-14 20 -11.5 44t21.5 38l184 143q37 27 72 0l184 -143q20 -14 23.5 -38t-13.5 -44q-14 -18 -37.5 -21.5t-44.5 11.5l-55 45l-49.5 37.5t-42.5 33.5l-44 -33l-48 -38q-26 -22 -57 -45zM119 672q0 55 20.5 103t57 85t85 57.5t103.5 20.5 t103.5 -20.5t85 -57.5t57 -85t20.5 -103v-410q0 -55 -20.5 -103t-57 -85t-85 -57.5t-103.5 -20.5t-103.5 20.5t-85 57.5t-57 85t-20.5 103v410zM385 815q-59 0 -101 -42t-42 -101v-410q0 -59 42 -101t101 -42t101 42t42 101v410q0 59 -42 101t-101 42z" />
<glyph unicode="&#xf5;" horiz-adv-x="770" d="M250 1126q-14 -20 -38 -24t-44 8q-20 14 -24.5 37.5t8.5 44.5q45 66 120 78q78 12 140 -33l16 -12q23 -18 49 -13q31 4 43 29q14 20 38 24.5t44 -8.5q20 -14 25.5 -37.5t-9.5 -43.5q-45 -66 -120 -78q-78 -12 -140 32l-16 13q-23 16 -49 12q-27 -2 -43 -29zM651 262 q0 -55 -20.5 -103t-57 -85t-85 -57.5t-103.5 -20.5t-103.5 20.5t-85 57.5t-57 85t-20.5 103v410q0 55 20.5 103t57 85t85 57.5t103.5 20.5t103.5 -20.5t85 -57.5t57 -85t20.5 -103v-410zM385 119q59 0 101 42t42 101v410q0 59 -42 101t-101 42t-101 -42t-42 -101v-410 q0 -59 42 -101t101 -42z" />
<glyph unicode="&#xf6;" horiz-adv-x="770" d="M303 1184q0 -35 -23.5 -58.5t-58.5 -23.5t-58.5 23.5t-23.5 58.5t23.5 58.5t58.5 23.5t58.5 -23.5t23.5 -58.5zM631 1184q0 -35 -23.5 -58.5t-58.5 -23.5t-58.5 23.5t-23.5 58.5t23.5 58.5t58.5 23.5t58.5 -23.5t23.5 -58.5zM651 262q0 -55 -20.5 -103t-57 -85t-85 -57.5 t-103.5 -20.5t-103.5 20.5t-85 57.5t-57 85t-20.5 103v410q0 55 20.5 103t57 85t85 57.5t103.5 20.5t103.5 -20.5t85 -57.5t57 -85t20.5 -103v-410zM385 119q59 0 101 42t42 101v410q0 59 -42 101t-101 42t-101 -42t-42 -101v-410q0 -59 42 -101t101 -42z" />
<glyph unicode="&#xf7;" d="M340 324q0 35 24.5 60.5t61.5 25.5q35 0 60.5 -26t25.5 -60q0 -35 -25.5 -60.5t-60.5 -25.5q-37 0 -61.5 25.5t-24.5 60.5zM426 770q-37 0 -61.5 25.5t-24.5 60.5t24.5 60.5t61.5 25.5q35 0 60.5 -25.5t25.5 -60.5t-25.5 -60.5t-60.5 -25.5zM737 590q0 -29 -19.5 -47.5 t-45.5 -18.5h-492q-29 0 -47 18.5t-18 47.5t18.5 47t46.5 18h492q27 0 46 -18t19 -47z" />
<glyph unicode="&#xf8;" horiz-adv-x="790" d="M129 672q0 55 20.5 103t57.5 85t85 57.5t103 20.5q98 0 170 -61l66 110q12 23 35.5 28t44.5 -5q23 -12 27.5 -36t-5.5 -44l-92 -158q20 -51 21 -100v-410q0 -55 -20.5 -103t-57.5 -85t-85 -57.5t-104 -20.5q-98 0 -170 61l-65 -110q-12 -23 -36 -29t-44 6q-23 12 -29 36 t6 44l93 156q-20 47 -21 102v410zM395 119q59 0 101.5 42t42.5 101v334l-250 -428q38 -49 106 -49zM395 815q-59 0 -101 -42t-42 -101v-334l250 428q-44 49 -107 49z" />
<glyph unicode="&#xf9;" horiz-adv-x="802" d="M246 1327q16 18 41.5 19.5t44.5 -15.5l205 -184q20 -16 21 -42t-15 -44q-18 -18 -43 -19.5t-45 15.5l-205 184q-18 16 -19 42t15 44zM393 4q-55 0 -103 20.5t-84 57.5t-57.5 85t-21.5 103v607q0 27 18.5 44t42.5 17q27 0 44.5 -17.5t17.5 -43.5v-607q0 -59 42 -101 t101 -42h144v750q0 27 18 44t43 17q27 0 44 -17.5t17 -43.5v-811q0 -27 -17 -44.5t-44 -17.5h-205z" />
<glyph unicode="&#xfa;" horiz-adv-x="802" d="M332 1057q-18 -16 -44 -15.5t-42 19.5q-16 18 -15.5 43.5t19.5 42.5l205 184q20 16 45.5 15.5t42.5 -19.5q16 -18 15 -44t-21 -42zM393 4q-55 0 -103 20.5t-84 57.5t-57.5 85t-21.5 103v607q0 27 18.5 44t42.5 17q27 0 44.5 -17.5t17.5 -43.5v-607q0 -59 42 -101t101 -42 h144v750q0 27 18 44t43 17q27 0 44 -17.5t17 -43.5v-811q0 -27 -17 -44.5t-44 -17.5h-205z" />
<glyph unicode="&#xfb;" horiz-adv-x="802" d="M246 1055q-20 -14 -43 -11t-39 21q-16 20 -12 44t22 38l184 143q16 12 35 13q20 0 37 -13l184 -143q18 -14 22.5 -38t-11.5 -44q-16 -18 -40 -21.5t-42 11.5q-31 23 -58 45l-49 37.5t-43 33.5q-16 -14 -42 -33l-48 -38q-26 -22 -57 -45zM127 877q0 27 18.5 44t42.5 17 q27 0 44.5 -17.5t17.5 -43.5v-607q0 -59 42 -101t101 -42h144v750q0 27 18 44t43 17q27 0 44 -17.5t17 -43.5v-811q0 -27 -17 -44.5t-44 -17.5h-205q-55 0 -103 20.5t-84 57.5t-57.5 85t-21.5 103v607z" />
<glyph unicode="&#xfc;" horiz-adv-x="802" d="M147 1184q0 35 24 58.5t58 23.5q35 0 58.5 -23.5t23.5 -58.5t-23.5 -58.5t-58.5 -23.5t-58.5 23.5t-23.5 58.5zM475 1184q0 35 23.5 58.5t58.5 23.5t58.5 -23.5t23.5 -58.5t-23.5 -58.5t-58.5 -23.5t-58.5 23.5t-23.5 58.5zM393 4q-55 0 -103 20.5t-84 57.5t-57.5 85 t-21.5 103v607q0 27 18.5 44t42.5 17q27 0 44.5 -17.5t17.5 -43.5v-607q0 -59 42 -101t101 -42h144v750q0 27 18 44t43 17q27 0 44 -17.5t17 -43.5v-811q0 -27 -17 -44.5t-44 -17.5h-205z" />
<glyph unicode="&#xfd;" horiz-adv-x="755" d="M229 1061q-16 18 -15 43.5t19 42.5l205 184q20 16 46 15.5t42 -19.5q16 -18 15.5 -44t-19.5 -42l-205 -184q-20 -16 -46 -15t-42 19zM379 270l186 625q8 23 29.5 35t46.5 6q25 -8 37 -30.5t4 -47.5l-246 -819l-78 -262q-25 -86 -96 -137q-72 -53 -160 -54q-25 0 -43 17.5 t-18 44.5t18.5 44t42.5 17q47 0 85 27.5t53 75.5l73 245l-239 801q-8 25 4 47.5t37 30.5q25 6 47 -6t28 -35z" />
<glyph unicode="&#xfe;" horiz-adv-x="794" d="M266 -352q0 -27 -17.5 -44.5t-43.5 -17.5q-27 0 -44.5 17.5t-17.5 44.5v1638q0 27 17.5 44.5t44.5 17.5t44 -17.5t17 -44.5v-348h144q55 0 103 -20.5t85 -57.5t57.5 -85t20.5 -103v-410q0 -55 -20.5 -103t-57.5 -85t-85 -57.5t-103 -20.5h-144v-348zM266 815v-696h144 q59 0 101 42t42 101v410q0 59 -42 101t-101 42h-144z" />
<glyph unicode="&#xff;" horiz-adv-x="755" d="M625 1184q0 -35 -23.5 -58.5t-58.5 -23.5t-58.5 23.5t-23.5 58.5t23.5 58.5t58.5 23.5t58.5 -23.5t23.5 -58.5zM215 1102q-35 0 -58.5 23.5t-23.5 58.5t23.5 58.5t58.5 23.5t58.5 -23.5t23.5 -58.5t-23.5 -58.5t-58.5 -23.5zM358 -223q-25 -86 -96 -137q-72 -53 -160 -54 q-25 0 -43 17.5t-18 44.5t18.5 44t42.5 17q47 0 85 27.5t53 75.5l73 245l-239 801q-8 25 4 47.5t37 30.5q25 6 47 -6t28 -35l189 -625l186 625q8 23 29.5 35t46.5 6q25 -8 37 -30.5t4 -47.5l-246 -819z" />
<glyph unicode="&#x152;" horiz-adv-x="1220" d="M426 -8q-66 0 -122 24.5t-98 66.5t-66.5 98.5t-24.5 121.5v696q0 63 24.5 121t66.5 100t98 66.5t122 24.5q51 0 97 -15.5t85 -44.5q4 23 22.5 37.5t41.5 14.5h409q27 0 46.5 -18.5t19.5 -47.5t-19.5 -47.5t-46.5 -18.5h-344v-213v-221h303q27 0 46.5 -18.5t19.5 -46.5 q0 -29 -19.5 -47.5t-46.5 -18.5h-303v-262v-213h344q27 0 46.5 -18.5t19.5 -46.5q0 -29 -19.5 -47.5t-46.5 -18.5h-409q-23 0 -41.5 14.5t-22.5 36.5q-39 -29 -85 -44t-97 -15zM426 1180q-76 0 -128 -53.5t-52 -127.5v-696q0 -76 52 -128t128 -52q74 0 127 52t53 128v41v614 v41q0 37 -14 70t-39 57.5t-57.5 39t-69.5 14.5z" />
<glyph unicode="&#x153;" horiz-adv-x="1163" d="M590 92q-37 -45 -90.5 -70.5t-114.5 -25.5q-55 0 -103.5 20.5t-85 57.5t-57 85t-20.5 103v410q0 55 20.5 103t57 85t85 57.5t103.5 20.5q61 0 114.5 -25.5t90.5 -70.5q37 45 90 70.5t115 25.5q55 0 103 -20.5t84 -57.5t57.5 -85t21.5 -103v-205q0 -27 -18.5 -44 t-43.5 -17h-348v-144q0 -43 23.5 -80t64.5 -53t83 -8t73 39q18 18 43 18q27 0 45 -18q16 -16 16 -43q0 -25 -16 -43q-59 -57 -137 -72.5t-154 14.5q-61 25 -102 76zM795 815q-59 0 -101.5 -42t-42.5 -101v-144h287v144q0 59 -42 101t-101 42zM385 119q59 0 101 42t42 101 v410q0 59 -42 101t-101 42t-101 -42t-42 -101v-410q0 -59 42 -101t101 -42z" />
<glyph unicode="&#x178;" horiz-adv-x="823" d="M639 1274q12 25 37.5 33t50.5 -2q23 -12 32 -39t-3 -49l-281 -562v-598q0 -29 -18.5 -47t-46.5 -18q-27 0 -46.5 18.5t-19.5 46.5v598l-278 562q-12 23 -4 49t32 39q25 10 50.5 1.5t37.5 -32.5l228 -455l68 133l75 150zM487 1593q0 35 26 60.5t60 25.5q37 0 61.5 -25.5 t24.5 -60.5t-24.5 -60.5t-61.5 -25.5q-35 0 -60.5 25.5t-25.5 60.5zM246 1507q-35 0 -60.5 26t-25.5 60q0 35 25.5 60.5t60.5 25.5q37 0 61.5 -25.5t24.5 -60.5t-24.5 -60.5t-61.5 -25.5z" />
<glyph unicode="&#x2c6;" horiz-adv-x="1024" d="M369 1051q-23 -16 -49.5 -14.5t-43.5 24.5q-16 23 -13 49.5t26 42.5l184 143q16 14 39 15q23 0 41 -15l184 -143q23 -16 26 -43t-13 -49q-16 -23 -43 -25t-50 15l-55 41l-47 35l-43 34l-43 -34l-47 -35z" />
<glyph unicode="&#x2dc;" horiz-adv-x="1024" d="M397 1278q82 12 146 -35l16 -12q20 -14 45 -12q25 6 37 24q16 23 43 29t49 -10q23 -14 29 -41t-10 -50q-43 -66 -125 -81q-82 -12 -146 34l-16 13q-18 16 -45 12q-27 -8 -37 -27q-16 -23 -43 -27.5t-49 9.5q-23 16 -28 43t9 49q23 33 55.5 53.5t69.5 28.5z" />
<glyph unicode="&#x2000;" horiz-adv-x="892" />
<glyph unicode="&#x2001;" horiz-adv-x="1787" />
<glyph unicode="&#x2002;" horiz-adv-x="892" />
<glyph unicode="&#x2003;" horiz-adv-x="1787" />
<glyph unicode="&#x2004;" horiz-adv-x="595" />
<glyph unicode="&#x2005;" horiz-adv-x="446" />
<glyph unicode="&#x2006;" horiz-adv-x="296" />
<glyph unicode="&#x2007;" horiz-adv-x="296" />
<glyph unicode="&#x2008;" horiz-adv-x="223" />
<glyph unicode="&#x2009;" horiz-adv-x="356" />
<glyph unicode="&#x200a;" horiz-adv-x="98" />
<glyph unicode="&#x2010;" d="M737 590q0 -29 -19.5 -47.5t-45.5 -18.5h-492q-29 0 -47 18.5t-18 47.5t18.5 47t46.5 18h492q27 0 46 -18t19 -47z" />
<glyph unicode="&#x2011;" d="M737 590q0 -29 -19.5 -47.5t-45.5 -18.5h-492q-29 0 -47 18.5t-18 47.5t18.5 47t46.5 18h492q27 0 46 -18t19 -47z" />
<glyph unicode="&#x2012;" d="M737 590q0 -29 -19.5 -47.5t-45.5 -18.5h-492q-29 0 -47 18.5t-18 47.5t18.5 47t46.5 18h492q27 0 46 -18t19 -47z" />
<glyph unicode="&#x2013;" horiz-adv-x="1024" d="M1024 655q29 0 47.5 -18.5t18.5 -46.5q0 -29 -18.5 -47.5t-47.5 -18.5h-1024q-27 0 -46.5 18.5t-19.5 47.5t19.5 47t46.5 18h1024z" />
<glyph unicode="&#x2014;" horiz-adv-x="2048" d="M0 524q-27 0 -46.5 18.5t-19.5 47.5t19.5 47t46.5 18h2048q29 0 47.5 -18.5t18.5 -46.5q0 -29 -18.5 -47.5t-47.5 -18.5h-2048z" />
<glyph unicode="&#x2018;" horiz-adv-x="393" d="M252 1188q-27 -14 -27 -41v-37h4q25 0 43.5 -17.5t18.5 -43.5q0 -27 -18.5 -45.5t-43.5 -18.5h-65q-27 0 -45.5 18.5t-18.5 45.5v98q0 51 29 93t76 63q23 10 47 -0.5t35 -32.5q10 -25 0 -48.5t-35 -33.5z" />
<glyph unicode="&#x2019;" horiz-adv-x="393" d="M139 1098q27 10 27 41v35h-2q-27 0 -45.5 18t-18.5 45t18.5 44t45.5 17h65q25 0 43.5 -17t18.5 -44v-98q0 -51 -29 -93t-76 -63q-23 -10 -47 0t-35 33q-10 25 0 48.5t35 33.5z" />
<glyph unicode="&#x201a;" horiz-adv-x="391" d="M229 160q25 0 43.5 -17.5t18.5 -44.5v-98q0 -51 -29 -93t-76 -63q-23 -10 -47 0.5t-35 32.5q-10 25 0.5 48.5t34.5 33.5q27 10 27 41v35h-2q-27 0 -45.5 18.5t-18.5 44.5q0 27 18.5 44.5t45.5 17.5h65z" />
<glyph unicode="&#x201c;" horiz-adv-x="759" d="M621 1188q-27 -14 -27 -41v-37h2q27 0 45 -17.5t18 -43.5q0 -27 -18 -45.5t-45 -18.5h-66q-27 0 -44 18.5t-17 45.5v98q0 51 27.5 93t74.5 63q25 10 48.5 -0.5t33.5 -32.5q10 -25 0.5 -48.5t-32.5 -33.5zM252 1188q-27 -14 -27 -41v-37h2q27 0 45.5 -17.5t18.5 -43.5 q0 -27 -18.5 -45.5t-45.5 -18.5h-65q-27 0 -44.5 18.5t-17.5 45.5v98q0 51 28 93t75 63q25 10 48 -0.5t34 -32.5q10 -25 0 -48.5t-33 -33.5z" />
<glyph unicode="&#x201d;" horiz-adv-x="761" d="M139 1098q29 10 29 41v35h-4q-27 0 -44.5 18t-17.5 45t17.5 44t44.5 17h65q27 0 45.5 -17t18.5 -44v-98q0 -51 -28.5 -93t-76.5 -63q-25 -10 -48 0t-34 33q-10 25 0 48.5t33 33.5zM471 1237q0 27 17.5 44t43.5 17h66q27 0 45.5 -17t18.5 -44v-98q0 -51 -29 -93t-76 -63 q-25 -10 -48.5 0t-33.5 33q-10 25 0 48t33 34q29 10 29 41v35h-5q-27 0 -44 18t-17 45z" />
<glyph unicode="&#x201e;" horiz-adv-x="761" d="M188 -156q-25 -10 -48 0.5t-34 32.5q-10 25 0.5 48.5t32.5 33.5q27 10 27 41v35h-2q-27 0 -45.5 18.5t-18.5 44.5q0 27 18.5 44.5t45.5 17.5h65q27 0 44.5 -17.5t17.5 -44.5v-98q0 -51 -28 -93.5t-75 -62.5zM508 -41q27 10 27 41v35h-3q-27 0 -45 18.5t-18 44.5 q0 27 18.5 44.5t44.5 17.5h66q27 0 44 -17.5t17 -44.5v-98q0 -51 -27.5 -93t-74.5 -63q-25 -10 -48.5 0.5t-33.5 32.5q-10 25 0 48.5t33 33.5z" />
<glyph unicode="&#x2022;" horiz-adv-x="524" d="M262 780q43 0 80 -16t64.5 -44t43 -65t15.5 -77q0 -86 -58.5 -144.5t-144.5 -58.5q-84 0 -142.5 58.5t-58.5 144.5q0 41 15.5 77.5t43 64.5t64.5 44t78 16zM262 494q35 0 60.5 24.5t25.5 59.5t-25.5 59.5t-60.5 24.5t-59.5 -25t-24.5 -59q0 -35 24.5 -59.5t59.5 -24.5z " />
<glyph unicode="&#x2026;" horiz-adv-x="1179" d="M180 164q37 0 61.5 -25.5t24.5 -60.5t-24.5 -60.5t-61.5 -25.5q-35 0 -60.5 25.5t-25.5 60.5t25.5 60.5t60.5 25.5zM676 78q0 -35 -24.5 -60.5t-61.5 -25.5q-35 0 -60.5 25.5t-25.5 60.5t25.5 60.5t60.5 25.5q37 0 61.5 -25.5t24.5 -60.5zM913 78q0 35 26 60.5t60 25.5 q37 0 61.5 -25.5t24.5 -60.5t-24.5 -60.5t-61.5 -25.5q-35 0 -60.5 25.5t-25.5 60.5z" />
<glyph unicode="&#x202f;" horiz-adv-x="356" />
<glyph unicode="&#x2039;" horiz-adv-x="489" d="M360 836q0 -20 -8 -31l-47 -86l-37 -70q-18 -35 -28 -51q10 -18 29 -56l40 -75l51 -92q8 -14 9 -31q0 -37 -33 -57q-25 -14 -50.5 -6t-39.5 32l-140 252q-16 31 0 64l132 237q14 25 39.5 33t50.5 -6q32 -20 32 -57z" />
<glyph unicode="&#x203a;" horiz-adv-x="489" d="M383 629q18 -33 0 -64l-139 -252q-12 -25 -39 -33t-49 7q-35 18 -35 57q0 10 8 31q29 49 51 92l41 75l31 56q-10 16 -30 51l-38 70q-23 39 -47 86q-8 16 -8 31q0 39 35 57q23 14 49.5 6t38.5 -33z" />
<glyph unicode="&#x205f;" horiz-adv-x="446" />
<glyph unicode="&#x20ac;" d="M465 1174q-59 -16 -96 -64.5t-37 -110.5v-118h262q27 0 46 -18.5t19 -47.5t-19 -47t-46 -18h-262v-197h180q27 0 46.5 -18.5t19.5 -47.5t-19.5 -47t-46.5 -18h-180v-119q0 -61 37 -109.5t96 -64.5t115.5 7.5t87.5 76.5l20 35q14 25 40 32t50 -8q23 -14 30 -39.5t-7 -50.5 l-21 -35q-53 -92 -149 -133t-201 -12q-102 29 -165.5 112t-63.5 189v119h-99q-29 0 -47 18.5t-18 46.5q0 29 18.5 47.5t46.5 18.5h99v197h-99q-29 0 -47 18t-18 47t18.5 47.5t46.5 18.5h99v118q0 106 63.5 189.5t165.5 111.5q104 29 200.5 -12t149.5 -133l21 -35 q14 -25 7 -50.5t-30 -39.5q-25 -14 -50.5 -7t-39.5 32l-20 35q-31 53 -87.5 76.5t-115.5 7.5z" />
<glyph unicode="&#x2122;" horiz-adv-x="1372" d="M823 1282l56 -78q23 -35 49 -71l49 -68l49 68q27 37 49 71l55 78q29 35 72 23q18 -6 30.5 -22.5t12.5 -37.5v-614q0 -27 -18.5 -45.5t-44.5 -18.5q-27 0 -44.5 18.5t-17.5 45.5v420q-16 -25 -33.5 -47.5t-29.5 -40.5l-29 -41q-20 -27 -51 -27t-51 27q-14 18 -29 41 l-29 41l-32 47v-420q0 -27 -18.5 -45.5t-45.5 -18.5t-44 18.5t-17 45.5v614q0 20 11 36.5t32 23.5q40 12 69 -23zM322 567q-27 0 -44.5 18.5t-17.5 45.5v543h-143q-27 0 -44.5 18t-17.5 45t17.5 44t44.5 17h409q27 0 45.5 -17t18.5 -44t-18.5 -45t-45.5 -18h-141v-543 q0 -27 -18 -45.5t-45 -18.5z" />
<glyph unicode="&#xe000;" horiz-adv-x="940" d="M0 940h940v-940h-940v940z" />
<glyph unicode="&#xfb01;" horiz-adv-x="1015" d="M811 1102q-35 0 -58.5 23.5t-23.5 58.5t23.5 58.5t58.5 23.5t58.5 -23.5t23.5 -58.5t-23.5 -58.5t-58.5 -23.5zM872 57q0 -27 -17.5 -44t-43.5 -17q-25 0 -43.5 17.5t-18.5 43.5v820q0 27 18.5 44t43.5 17q27 0 44 -17.5t17 -43.5v-820zM115 807q-27 0 -44.5 17.5 t-17.5 43.5q0 27 17.5 44.5t44.5 17.5h102v151q0 55 20.5 103.5t57.5 85.5t85 57.5t103 20.5q27 0 44.5 -17.5t17.5 -44.5t-17.5 -44t-44.5 -17q-59 0 -101 -42t-42 -102v-151h143q27 0 44.5 -17.5t17.5 -44.5t-17.5 -44t-44.5 -17h-143v-750q0 -27 -17.5 -44t-43.5 -17 q-27 0 -44.5 17.5t-17.5 43.5v750h-102z" />
<glyph unicode="&#xfb02;" horiz-adv-x="1015" d="M856 4q-51 31 -82 83t-31 112v1087q0 27 18.5 44.5t43.5 17.5q27 0 44 -17.5t17 -44.5v-1087q0 -29 14.5 -51.5t36.5 -36.5q23 -12 30 -37q2 -8 2 -16q0 -16 -9 -31q-12 -23 -37 -29q-8 -2 -16 -2q-16 0 -31 8zM115 807q-27 0 -44.5 17.5t-17.5 43.5q0 27 17.5 44.5 t44.5 17.5h102v151q0 55 20.5 103.5t57.5 85.5t85 57.5t103 20.5q27 0 44.5 -17.5t17.5 -44.5t-17.5 -44t-44.5 -17q-59 0 -101 -42t-42 -102v-151h143q27 0 44.5 -17.5t17.5 -44.5t-17.5 -44t-44.5 -17h-143v-750q0 -27 -17.5 -44t-43.5 -17q-27 0 -44.5 17.5t-17.5 43.5 v750h-102z" />
<glyph unicode="&#xfb03;" horiz-adv-x="1622" d="M1417 1102q-35 0 -58.5 23.5t-23.5 58.5t23.5 58.5t58.5 23.5t58.5 -23.5t23.5 -58.5t-23.5 -58.5t-58.5 -23.5zM1478 57q0 -27 -17.5 -44t-43.5 -17q-25 0 -43.5 17.5t-18.5 43.5v820q0 27 18.5 44t43.5 17q27 0 44 -17.5t17 -43.5v-820zM721 807q-27 0 -44.5 17.5 t-17.5 43.5q0 27 17.5 44.5t44.5 17.5h102v151q0 55 20.5 103.5t57.5 85.5t85 57.5t103 20.5q27 0 44.5 -17.5t17.5 -44.5t-17.5 -44t-44.5 -17q-59 0 -101 -42t-42 -102v-151h143q27 0 44.5 -17.5t17.5 -44.5t-17.5 -44t-44.5 -17h-143v-750q0 -27 -17.5 -44t-43.5 -17 q-27 0 -44.5 17.5t-17.5 43.5v750h-102zM115 807q-27 0 -44.5 17.5t-17.5 43.5q0 27 17.5 44.5t44.5 17.5h102v151q0 55 20.5 103.5t57.5 85.5t85 57.5t103 20.5q27 0 44.5 -17.5t17.5 -44.5t-17.5 -44t-44.5 -17q-59 0 -101 -42t-42 -102v-151h143q27 0 44.5 -17.5 t17.5 -44.5t-17.5 -44t-44.5 -17h-143v-750q0 -27 -17.5 -44t-43.5 -17q-27 0 -44.5 17.5t-17.5 43.5v750h-102z" />
<glyph unicode="&#xfb04;" horiz-adv-x="1622" d="M1462 4q-51 31 -82 83t-31 112v1087q0 27 18.5 44.5t43.5 17.5q27 0 44 -17.5t17 -44.5v-1087q0 -29 14.5 -51.5t36.5 -36.5q23 -12 30 -37q2 -8 2 -16q0 -16 -9 -31q-12 -23 -37 -29q-8 -2 -16 -2q-16 0 -31 8zM721 807q-27 0 -44.5 17.5t-17.5 43.5q0 27 17.5 44.5 t44.5 17.5h102v151q0 55 20.5 103.5t57.5 85.5t85 57.5t103 20.5q27 0 44.5 -17.5t17.5 -44.5t-17.5 -44t-44.5 -17q-59 0 -101 -42t-42 -102v-151h143q27 0 44.5 -17.5t17.5 -44.5t-17.5 -44t-44.5 -17h-143v-750q0 -27 -17.5 -44t-43.5 -17q-27 0 -44.5 17.5t-17.5 43.5 v750h-102zM115 807q-27 0 -44.5 17.5t-17.5 43.5q0 27 17.5 44.5t44.5 17.5h102v151q0 55 20.5 103.5t57.5 85.5t85 57.5t103 20.5q27 0 44.5 -17.5t17.5 -44.5t-17.5 -44t-44.5 -17q-59 0 -101 -42t-42 -102v-151h143q27 0 44.5 -17.5t17.5 -44.5t-17.5 -44t-44.5 -17h-143 v-750q0 -27 -17.5 -44t-43.5 -17q-27 0 -44.5 17.5t-17.5 43.5v750h-102z" />
</font>
</defs>
</svg>
